⤤ Premium'a Yükselt
Filmbol Forum Film İndir 1080P v Lanetli Mesaj (Friend Request) - 2016 - TR+ORG - 1080P | tt3352390

Filmbol TV kullanıma açıldı. Bu adresten giriş yapabilirsin: Giriş





Lanetli Mesaj (Friend Request) - 2016 - TR+ORG - 1080P | tt3352390
BroserBros
Lanetli Mesaj (Friend Request) - 2016 - TR+ORG - 1080P | tt3352390
10
2292
  • Derecelendirme: 0/5 - 0 oy
  • 1
  • 2
  • 3
  • 4
  • 5
Konuyu Okuyanlar:2 Ziyaretçi
Şuan Online!
Filmin Yayınlanma Tarihi: 2016 
WWW
Rapor Et!
Şuan Online!
BroserBros Kurucu Admin
*******
Admin



 Lanetli Mesaj



Paranormal korku türüne yeni bir ekleme olan Lanetli Mesaj, temel olarak sosyal medyayı alıyor. Okulunn popüler kızlarından Laura okulun asosyal öğrencilerinden Marina’nın arkadaşlık isteğini kabul eder. Ancak Marina bu arkadaşlığı bir saplantıya dönüştürüp sürekli Laura ile ilgili paylaşımlar yapınca onu arkadaşlığından çıkaran genç bir kadın bir anda şeytani güçlerin eline düşer. Laura’nın sosyal medya hesabını bir ruh ele geçirmiştir ve silinemeyen, esrarengiz, vahşet dolu videolar paylaşmaktadır. Şeytani yaratıkların kadını mahvetmek için izlediği yol ise onun en yakın arkadaşlarını öldürürerek yalnızlaştırmaktan geçmektedir.
Alman yapımı filmin başrolünü Alycia Debnam-Carey, William Moseley ve Connor Paolo üstlenirken, filmin kadrosunda Brit Morgan, Brooke Markham, Sean Marquette, Liesl Ahlers ve Lee Raviv gibi isimler yer buluyor. Filmin yönetmen koltuğunda ise Simon Verhoeven oturuyor. Filmin senaryosunda Matthew Ballen, Philip Koch ve Simon Verhoeven imzası var.

Lanetli Mesaj (2016) | tt3352390 Filmi Imdb'den 25,000 kişi tarafından oylandı ve 5,3 puan aldı. Bu film için editör puanı %55 olarak belirlendi. İyi Seyirler!

Teknik Detaylar

Kod :
General
Unique ID                                : 128976996785011617042710772125246825001 (0x610810E6FBF3CA5B59F34154C29E2229)
Complete name                            : C:\Users\Administrator\Desktop\3\Lanetli.Mesaj.2016.1080p.BluRay.x264.TR.ENG.Filmbol.mkv
Format                                   : Matroska
Format version                           : Version 4
File size                                : 1.54 GiB
Duration                                 : 1 h 32 min
Overall bit rate                         : 2 385 kb/s
Movie name                               : Lanetli Mesaj - Friend Request - 2016 | Filmbol.org
Encoded date                             : UTC 2021-07-27 15:10:59
Writing application                      : mkvmerge v59.0.0 ('Shining Star') 64-bit
Writing library                          : libebml v1.4.2 + libmatroska v1.6.4

Video
ID                                       : 1
Format                                   : AVC
Format/Info                              : Advanced Video Codec
Format profile                           : [email protected]
Format settings                          : CABAC / 4 Ref Frames
Format settings, CABAC                   : Yes
Format settings, Reference frames        : 4 frames
Codec ID                                 : V_MPEG4/ISO/AVC
Duration                                 : 1 h 32 min
Bit rate                                 : 2 050 kb/s
Width                                    : 1 920 pixels
Height                                   : 816 pixels
Display aspect ratio                     : 2.35:1
Frame rate mode                          : Constant
Frame rate                               : 23.976 (24000/1001) FPS
Color space                              : YUV
Chroma subsampling                       : 4:2:0
Bit depth                                : 8 bits
Scan type                                : Progressive
Bits/(Pixel*Frame)                       : 0.055
Stream size                              : 1.32 GiB (86%)
Title                                    : 1080P - Filmbol.org
Writing library                          : x264 core 148
Encoding settings                        : cabac=1 / ref=4 / deblock=1:-1:-1 / analyse=0x3:0x133 / me=umh / subme=9 / psy=1 / psy_rd=1.00:0.15 / mixed_ref=1 / me_range=24 / chroma_me=1 / trellis=2 / 8x8dct=1 / cqm=0 / deadzone=21,11 / fast_pskip=0 / chroma_qp_offset=-3 / threads=12 / lookahead_threads=1 / sliced_threads=0 / nr=0 / decimate=1 / interlaced=0 / bluray_compat=0 / constrained_intra=0 / bframes=3 / b_pyramid=2 / b_adapt=2 / b_bias=0 / direct=3 / weightb=1 / open_gop=0 / weightp=2 / keyint=250 / keyint_min=23 / scenecut=40 / intra_refresh=0 / rc_lookahead=60 / rc=2pass / mbtree=1 / bitrate=2050 / ratetol=1.0 / qcomp=0.60 / qpmin=0 / qpmax=69 / qpstep=4 / cplxblur=20.0 / qblur=0.5 / vbv_maxrate=31250 / vbv_bufsize=31250 / nal_hrd=none / filler=0 / ip_ratio=1.40 / aq=1:1.00
Default                                  : Yes
Forced                                   : No

Audio #1
ID                                       : 2
Format                                   : AC-3
Format/Info                              : Audio Coding 3
Commercial name                          : Dolby Digital
Codec ID                                 : A_AC3
Duration                                 : 1 h 32 min
Bit rate mode                            : Constant
Bit rate                                 : 192 kb/s
Channel(s)                               : 2 channels
Channel layout                           : L R
Sampling rate                            : 48.0 kHz
Frame rate                               : 31.250 FPS (1536 SPF)
Compression mode                         : Lossy
Stream size                              : 127 MiB (8%)
Title                                    : Türkçe - Filmbol.org
Language                                 : Turkish
Service kind                             : Complete Main
Default                                  : Yes
Forced                                   : No

Audio #2
ID                                       : 3
Format                                   : AAC LC
Format/Info                              : Advanced Audio Codec Low Complexity
Codec ID                                 : A_AAC-2
Duration                                 : 1 h 32 min
Bit rate                                 : 141 kb/s
Channel(s)                               : 2 channels
Channel layout                           : L R
Sampling rate                            : 48.0 kHz
Frame rate                               : 46.875 FPS (1024 SPF)
Compression mode                         : Lossy
Stream size                              : 92.9 MiB (6%)
Title                                    : Orijinal Dil - Filmbol.org
Language                                 : English
Default                                  : No
Forced                                   : No

Text
ID                                       : 4
Format                                   : UTF-8
Codec ID                                 : S_TEXT/UTF8
Codec ID/Info                            : UTF-8 Plain Text
Duration                                 : 1 h 26 min
Bit rate                                 : 34 b/s
Count of elements                        : 567
Stream size                              : 22.0 KiB (0%)
Title                                    : Türkçe - Filmbol.org
Language                                 : Turkish
Default                                  : No
Forced                                   : No

Film Detayları


 Lanetli Mesaj

 Lanetli Mesaj

 Lanetli Mesaj


Film Fragmanı


Film İndir


Rar Şifresi: filmbol.org


Uptobox ile indir

1Fichier ile indir

1Fichier'den İndiremiyor musun? Tıklayın!












Şuan Offine!
Rapor Et!
Şuan Offine!
apatee13 Üye
*
Üye
  • Konular0
  • Mesajlar5
  • Rep puanı 0
teşekkürler
Şuan Offine!
Rapor Et!
Şuan Offine!
alparslan tuğrul Üye
*
Üye
  • Konular0
  • Mesajlar1
  • Rep puanı 0
Teşekkür Ederim Angel
Şuan Offine!
Rapor Et!
Şuan Offine!
alena Üye
*
Üye
  • Konular0
  • Mesajlar1
  • Rep puanı 0
harika
Şuan Online!
Rapor Et!
Şuan Online!
BroserBros Kurucu Admin
*******
Admin
29.07.2021 Yönetici Notu:

Kırık linkler kontrol edildi, kaldırıldı ve yenilendi. Tüm linkler tamamen çalışır durumda.
Şuan Offine!
Rapor Et!
Şuan Offine!
angelord Üye
*
Üye
  • Konular1
  • Mesajlar137
  • Rep puanı 0
teşekkürler
Şuan Offine!
Rapor Et!
Şuan Offine!
suluaho Üye
*
Üye
  • Konular0
  • Mesajlar57
  • Rep puanı 0
Teşekkürler.
Şuan Offine!
Rapor Et!
Şuan Offine!
askbocegi31 Üye
*
Üye
  • Konular0
  • Mesajlar100
  • Rep puanı 0
Teşekkürler.
Şuan Offine!
Rapor Et!
Şuan Offine!
omersoydan123 Üye
*
Üye
  • Konular0
  • Mesajlar33
  • Rep puanı 0
Teşekkürler.
Şuan Offine!
Rapor Et!
Şuan Offine!
phaedrus1975 Üye
*
Üye
  • Konular0
  • Mesajlar104
  • Rep puanı 0
Teşekkürler.


Hızlı Menü: