Filmbol Forum Film İndir 1080P v Bir Ulusun Doğuşu (The Birth of a Nation) Türkçe Dublaj m1080P İndir
Mega linklerinin şikayet edilmemesi için global erişime kapatıp sadece yorum yapanlara açıyoruz. Bu linkleri gizleme işlemini mecburen yapıyoruz ve yorum yapmanızın siteye değil size faydası vardır. Teşekürler yazmayı çok görüp, Random/Spam mesajlar atarak Mega linklerini açmaya çalışan kullanıcılara önce süresiz ban, devam ederse IP ban atacağız.
Filmbol'da moderatör olmak ister misiniz? Bizimle iletişime geçmek için tıklayın!
Bir Ulusun Doğuşu (The Birth of a Nation) Türkçe Dublaj m1080P İndir
BroserBros
Bir Ulusun Doğuşu (The Birth of a Nation) Türkçe Dublaj m1080P İndir
5
1526
  • Derecelendirme: 0/5 - 0 oy
  • 1
  • 2
  • 3
  • 4
  • 5
Konuyu Okuyanlar:1 Ziyaretçi
Şuan Online!
Filmin Yayınlanma Tarihi: 2016 
WWW
Şuan Online!
BroserBros Kurucu Admin
*******
Admin





Ses Kodek: AC3


Audio Coding 3 (AC3)

rarsifresi


filmbol.org




Bir Ulusun Dogusu



Teknik Detaylar

Kod :
General
Format                                   : Matroska
Format version                           : Version 4 / Version 2
File size                                : 1.92 GiB
Duration                                 : 1h 59mn
Overall bit rate                         : 2 289 Kbps
Movie name                               : The Birth of a Nation - Filmbol.org

Video
ID                                       : 1
Format                                   : AVC
Format/Info                              : Advanced Video Codec
Format profile                           : [email protected]
Format settings, CABAC                   : Yes
Format settings, ReFrames                : 2 frames
Codec ID                                 : V_MPEG4/ISO/AVC
Duration                                 : 1h 59mn
Bit rate                                 : 2 019 Kbps
Width                                    : 1 920 pixels
Height                                   : 800 pixels
Display aspect ratio                     : 2.40:1
Frame rate mode                          : Constant
Frame rate                               : 23.976 fps
Color space                              : YUV
Chroma subsampling                       : 4:2:0
Bit depth                                : 8 bits
Scan type                                : Progressive
Bits/(Pixel*Frame)                       : 0.055
Stream size                              : 1.69 GiB (88%)
Title                                    : 1080P - Filmbol.org
Default                                  : Yes
Forced                                   : No

Audio
ID                                       : 2
Format                                   : AC-3
Format/Info                              : Audio Coding 3
Mode extension                           : CM (complete main)
Format settings, Endianness              : Big
Codec ID                                 : A_AC3
Duration                                 : 1h 59mn
Bit rate mode                            : Constant
Bit rate                                 : 224 Kbps
Channel(s)                               : 2 channels
Channel positions                        : Front: L R
Sampling rate                            : 48.0 KHz
Bit depth                                : 16 bits
Compression mode                         : Lossy
Stream size                              : 192 MiB (10%)
Title                                    : Türkçe - Filmbol.org
Language                                 : Turkish
Default                                  : Yes
Forced                                   : No


Film Detayları


Bir Ulusun Dogusu

Bir Ulusun Dogusu

Bir Ulusun Dogusu


Film Fragmanı


Film Detayları

Mini 1080P İndir



Mega linki şuan da gizli. Kullanıma açmak için konuya yorum yapın ve ardından sayfayı yenileyin.

Mega


f4sb

MediaFire ile indir

Google Drive linki şuan da gizli. Kullanıma açmak için konuya yorum yapın ve ardından sayfayı yenileyin.

Google Drive


Şuan Offine!
Şuan Offine!
Dünyalı Yeni Üye
*
Üye

  • Konular0
  • Mesajlar4
  • Rep puanı 0
Linkler kırılmış hiçbiri çalışmıyor!!!!!!
Şuan Online!
Şuan Online!
BroserBros Kurucu Admin
*******
Admin

Uyarı için teşekkürler. Linkler 2 saat içerisinde yenilenecek.
Şuan Online!
Şuan Online!
BroserBros Kurucu Admin
*******
Admin

13.09.2019 Güncellemesi;

Tüm linkler yenilendi, Alternatif 7 link (Yorum yaptıktan sonra açılan dahil) eklendi.
Şuan Offine!
Şuan Offine!
murat.koru57 Yeni Üye
*
Üye

  • Konular0
  • Mesajlar3
  • Rep puanı 0
çok iyi
Şuan Offine!
Şuan Offine!
Rocklion17 Süper Üye
***
Super Üye

  • Konular0
  • Mesajlar27
  • Rep puanı 0
harika


Hızlı Menü: