Filmbol Forum Film İndir FHD - FULL HD v Arınma Gecesi: Sonsuza Dek (The Forever Purge) - 2021 - Türkçe Altyazı! - FHD - x264 | tt10327252
Bildirimi Kapat
Server kaynaklı problemden dolayı ciddi bir sorun yaşadık. Şuanda forum ve portal aktif halde ancak bazı problemler hala devam ediyor. Problem gördüğünüz yerleri bize bildirmeniz çok önemli. Teşekkürler.

Bildirimi Kapat
Merhaba , site giderlerini bir nebze olsun karşılamak adına link kısaltma servisleri kullanmaya başladık. İndirme linkleri sizi ouo.io adresinde yönlendirecek, 3 saniye geçtikten sonra Get Link butonuna tıklayarak linke ulaşacaksınız. Premium üyeler bu durumdan etkilenmeyecektir.


Premium Üyelik Al

Arınma Gecesi: Sonsuza Dek (The Forever Purge) - 2021 - Türkçe Altyazı! - FHD - x264 | tt10327252
BroserBros
Arınma Gecesi: Sonsuza Dek (The Forever Purge) - 2021 - Türkçe Altyazı! - FHD - x264 | tt10327252
1
33
  • Derecelendirme: 0/5 - 0 oy
  • 1
  • 2
  • 3
  • 4
  • 5
Konuyu Okuyanlar:2 Ziyaretçi
Şuan Online!
Filmin Yayınlanma Tarihi: 2021 
Şuan Online!
BroserBros Kurucu Admin
*******
Admin


 Arınma Gecesi: Sonsuza Dek



Arınma Gecesi: Sonsuza Dek, Arınma Gecesi'nin hiç sona ermemesi gerektiğine karar verilmesiyle yaşananları konu ediyor. Kanunsuz bir topluluk, tek gecelik anarşi ve cinayetle artık yetinmek istemez. Yeraltı hareketinin üyeleri bu nedenle hiç bitmeyecek olan bir katliam ile ABD'yı ele geçirmeye karar verir. Artık hiçkimse güvende değildir. Teksas'da yaşamakta olan Adele ve kocası Juan da bu dehşetin kurbanları olur. Juan, zengin bir aile olan Tucker Ailesi’nin çiftliğinde çalışmaktadır. Arınma Gecesi'nin ertesi sabahında maskeli katillerden oluşan çete, Tucker Ailesi'ne saldırır. Bu kaos ortamında iki aile, katillere karşı bir araya gelip direnmek mecburiyetinde kalır.

Arınma Gecesi: Sonsuza Dek (2021) (The Forever Purge) | tt10327252 Filmi Imdb'den 21,000 kişi tarafından oylandı ve 5,4 puan aldı. Bu film için editör puanı %77 olarak belirlendi. İyi Seyirler!

Teknik Detaylar

Kod :
General
Unique ID                                : 15681220578893546567562879295846297969 (0xBCC17DDC5FC4E9D5A115EF0BD133171)
Complete name                            : C:\Users\Administrator\Desktop\3\Arınma.Gecesi.Sonsuza.Dek.2021.FHD.BluRay.x264.Türkçe.Altyazı.Filmbol.mkv
Format                                   : Matroska
Format version                           : Version 4
File size                                : 8.05 GiB
Duration                                 : 1 h 43 min
Overall bit rate                         : 11.1 Mb/s
Movie name                               : Arınma Gecesi: Sonsuza Dek - The Forever Purge - 2021 | Filmbol.org
Encoded date                             : UTC 2021-09-26 10:47:51
Writing application                      : mkvmerge v61.0.0 ('So') 64-bit
Writing library                          : libebml v1.4.2 + libmatroska v1.6.4

Video
ID                                       : 1
Format                                   : AVC
Format/Info                              : Advanced Video Codec
Format profile                           : [email protected]
Format settings                          : CABAC / 4 Ref Frames
Format settings, CABAC                   : Yes
Format settings, Reference frames        : 4 frames
Codec ID                                 : V_MPEG4/ISO/AVC
Duration                                 : 1 h 43 min
Bit rate                                 : 9 624 kb/s
Width                                    : 1 920 pixels
Height                                   : 1 040 pixels
Display aspect ratio                     : 1.85:1
Frame rate mode                          : Constant
Frame rate                               : 23.976 (24000/1001) FPS
Color space                              : YUV
Chroma subsampling                       : 4:2:0
Bit depth                                : 8 bits
Scan type                                : Progressive
Bits/(Pixel*Frame)                       : 0.201
Stream size                              : 6.96 GiB (86%)
Title                                    : FHD - Filmbol.org
Writing library                          : x264 core 157 r2938 2b00a84 [email protected] Mod
Encoding settings                        : cabac=1 / ref=4 / deblock=1:-3:-3 / analyse=0x3:0x133 / me=umh / subme=10 / psy=1 / psy_rd=1.05:0.00 / mixed_ref=1 / me_range=32 / chroma_me=1 / trellis=2 / 8x8dct=1 / cqm=0 / deadzone=21,11 / fast_pskip=0 / chroma_qp_offset=-2 / threads=12 / lookahead_threads=2 / sliced_threads=0 / nr=0 / decimate=0 / interlaced=0 / bluray_compat=0 / constrained_intra=0 / bframes=8 / b_pyramid=2 / b_adapt=2 / b_bias=0 / direct=3 / weightb=1 / open_gop=0 / weightp=2 / keyint=250 / keyint_min=24 / scenecut=40 / intra_refresh=0 / rc_lookahead=250 / rc=crf / mbtree=0 / crf=16.8 / qcomp=0.60 / qpmin=0 / qpmax=69 / qpstep=4 / vbv_maxrate=62500 / vbv_bufsize=78125 / crf_max=0.0 / nal_hrd=none / filler=0 / ip_ratio=1.30 / pb_ratio=1.20 / aq=3:0.80
Language                                 : English
Default                                  : Yes
Forced                                   : No
Color range                              : Limited
Color primaries                          : BT.709
Matrix coefficients                      : BT.709

Audio
ID                                       : 2
Format                                   : DTS
Format/Info                              : Digital Theater Systems
Codec ID                                 : A_DTS
Duration                                 : 1 h 43 min
Bit rate mode                            : Constant
Bit rate                                 : 1 509 kb/s
Channel(s)                               : 6 channels
Channel layout                           : C L R Ls Rs LFE
Sampling rate                            : 48.0 kHz
Frame rate                               : 93.750 FPS (512 SPF)
Bit depth                                : 24 bits
Compression mode                         : Lossy
Stream size                              : 1.09 GiB (14%)
Title                                    : Orijinal Dil - Filmbol.org
Language                                 : English
Default                                  : Yes
Forced                                   : No

Text #1
ID                                       : 3
Format                                   : UTF-8
Codec ID                                 : S_TEXT/UTF8
Codec ID/Info                            : UTF-8 Plain Text
Duration                                 : 1 h 34 min
Bit rate                                 : 54 b/s
Count of elements                        : 1260
Stream size                              : 38.2 KiB (0%)
Title                                    : Türkçe - Filmbol.org
Language                                 : Turkish
Default                                  : Yes
Forced                                   : Yes

Text #2
ID                                       : 4
Format                                   : UTF-8
Codec ID                                 : S_TEXT/UTF8
Codec ID/Info                            : UTF-8 Plain Text
Duration                                 : 1 h 43 min
Bit rate                                 : 64 b/s
Count of elements                        : 1770
Stream size                              : 48.7 KiB (0%)
Title                                    : Orijinal Dil - Filmbol.org
Language                                 : English
Default                                  : No
Forced                                   : No

Text #3
ID                                       : 5
Format                                   : UTF-8
Codec ID                                 : S_TEXT/UTF8
Codec ID/Info                            : UTF-8 Plain Text
Duration                                 : 1 h 32 min
Bit rate                                 : 44 b/s
Count of elements                        : 1038
Stream size                              : 30.4 KiB (0%)
Title                                    : Orijinal Dil - Filmbol.org
Language                                 : English
Default                                  : No
Forced                                   : No

Film Detayları


 Arınma Gecesi: Sonsuza Dek

 Arınma Gecesi: Sonsuza Dek

 Arınma Gecesi: Sonsuza Dek


Film Fragmanı


Film Detayları



Zip Şifresi: filmbol.org Aşağıdaki butona tıklayarak kopyalabilirsiniz.

Film Türkçe Altyazılıdır (Forced Değil). Altyazı dosyası Eklidir. İyi Seyirler...



Filmbol Cloud

Bunun için üzgünüz ancak, bu linke sadece premium üyeler erişebilir.




WWW
Şuan Offine!
Şuan Offine!
Aspirin46 Süper Üye
***
Super Üye
  • Konular0
  • Mesajlar97
  • Rep puanı 0
Teşekkürler.


Hızlı Menü: