Filmbol Forum Film İndir BRRip XviD v 85 Yazı (Été 85 - Summer Of 85) - 2020 - TR - BRRip XviD | tt10457128
Bildirimi Kapat
Server kaynaklı problemden dolayı ciddi bir sorun yaşadık. Şuanda forum ve portal aktif halde ancak bazı problemler hala devam ediyor. Problem gördüğünüz yerleri bize bildirmeniz çok önemli. Teşekkürler.

Bildirimi Kapat
Merhaba , site giderlerini bir nebze olsun karşılamak adına link kısaltma servisleri kullanmaya başladık. İndirme linkleri sizi ouo.io adresinde yönlendirecek, 3 saniye geçtikten sonra Get Link butonuna tıklayarak linke ulaşacaksınız. Premium üyeler bu durumdan etkilenmeyecektir.


Premium Üyelik Al

85 Yazı (Été 85 - Summer Of 85) - 2020 - TR - BRRip XviD | tt10457128
BroserBros
85 Yazı (Été 85 - Summer Of 85) - 2020 - TR - BRRip XviD | tt10457128
0
21
  • Derecelendirme: 0/5 - 0 oy
  • 1
  • 2
  • 3
  • 4
  • 5
Konuyu Okuyanlar:1 Ziyaretçi
Şuan Online!
Filmin Yayınlanma Tarihi: 2020 
Şuan Online!
BroserBros Kurucu Admin
*******
Admin


 85 Yazı



85 Yazı, hayatını kurtaran kahramanıyla dost olan bir gencin hikayesini konu ediyor. 16 yaşında olan Alexis, büyümenin de yanı sıra getirdiği problemlerle baş etmeye çalışan bir gençtir. Ancak Normandiya sahilinde alabora meydana geldiğinde ölümle burun buruna gelir. Onun hayatını kurtarıp bambaşka bir hal almasını sağlamakta olan ise 18 yaşındaki David olur. Alexis, David'in kahramanca davranarak hayatını kurtarmasıyla hayallerindeki arkadaş ile de tanışmış olur. Ancak Alexis için bu rüya bir yazdan daha uzun sürebilecek midir?

85 Yazı (2020) (Été 85 - Summer Of 85) | tt10457128 Filmi Imdb'den 10,000 kişi tarafından oylandı ve 6,9 puan aldı. Bu film için editör puanı %65 olarak belirlendi. İyi Seyirler!

Teknik Detaylar

Kod :
General
Complete name                            : 85.Yazı.2020.BRRip.XviD.TR.Filmbol.avi
Format                                   : AVI
Format/Info                              : Audio Video Interleave
File size                                : 1.11 GiB
Duration                                 : 1 h 36 min
Overall bit rate                         : 1 635 kb/s

Video
ID                                       : 0
Format                                   : MPEG-4 Visual
Format profile                           : Advanced [email protected]
Format settings                          : BVOP2
Format settings, BVOP                    : 2
Format settings, QPel                    : No
Format settings, GMC                     : No warppoints
Format settings, Matrix                  : Default (H.263)
Codec ID                                 : XVID
Codec ID/Hint                            : XviD
Duration                                 : 1 h 36 min
Bit rate                                 : 1 494 kb/s
Width                                    : 1 280 pixels
Height                                   : 688 pixels
Display aspect ratio                     : 1.85:1
Frame rate                               : 25.000 FPS
Color space                              : YUV
Chroma subsampling                       : 4:2:0
Bit depth                                : 8 bits
Scan type                                : Progressive
Compression mode                         : Lossy
Bits/(Pixel*Frame)                       : 0.068
Stream size                              : 1.01 GiB (91%)
Writing library                          : XviD 67

Audio
ID                                       : 1
Format                                   : MPEG Audio
Format version                           : Version 1
Format profile                           : Layer 3
Codec ID                                 : 55
Codec ID/Hint                            : MP3
Duration                                 : 1 h 36 min
Bit rate mode                            : Constant
Bit rate                                 : 128 kb/s
Channel(s)                               : 2 channels
Sampling rate                            : 44.1 kHz
Compression mode                         : Lossy
Stream size                              : 88.7 MiB (8%)
Alignment                                : Aligned on interleaves
Interleave, duration                     : 26  ms (0.65 video frame)
Writing library                          : LAMEªªª’H$Ýè

Film Detayları


 85 Yazı

 85 Yazı

 85 Yazı


Film Fragmanı


Film İndir



Zip Şifresi: filmbol.org Aşağıdaki butona tıklayarak kopyalabilirsiniz.



Uptobox ile indir

1Fichier ile indir

1Fichier'den İndiremiyor musun? Tıklayın!






Filmbol Cloud

Bunun için üzgünüz ancak, bu linke sadece premium üyeler erişebilir.




WWW


Hızlı Menü: