Filmbol Forum Film İndir UHD - ULTRA HD - 4K v Warcraft: İki Dünyanın İlk Karşılaşması (Warcraft) - 2016 - TR+ORG - UHD (4K) - 10Bit-x265 | tt0803096
Bildirimi Kapat
Merhaba , site giderlerini bir nebze olsun karşılamak adına link kısaltma servisleri kullanmaya başladık. İndirme linkleri sizi ouo.io adresinde yönlendirecek, 3 saniye geçtikten sonra Get Link butonuna tıklayarak linke ulaşacaksınız. Premium üyeler bu durumdan etkilenmeyecektir.


Premium Üyelik Al

Warcraft: İki Dünyanın İlk Karşılaşması (Warcraft) - 2016 - TR+ORG - UHD (4K) - 10Bit-x265 | tt0803096
BroserBros
Warcraft: İki Dünyanın İlk Karşılaşması (Warcraft) - 2016 - TR+ORG - UHD (4K) - 10Bit-x265 | tt0803096
0
57
  • Derecelendirme: 0/5 - 0 oy
  • 1
  • 2
  • 3
  • 4
  • 5
Konuyu Okuyanlar:1 Ziyaretçi
Şuan Online!
Filmin Yayınlanma Tarihi: 2016 
Şuan Online!
BroserBros Kurucu Admin
*******
Admin


 Warcraft: İki Dünyanın İlk Karşılaşması



Bir ork ordusu, büyücüleri Guldan ile birlikte Azeroth gezegenine bir portal açarak istila etmeye çalışır, ancak bir sorun vardır ki, orklar dan bir klan düşmanlarının insanlar değil başkaları olduğunu düşünmektedirler. Azeroth savaşçıları ve muhalif ork klanları, orklara ve Guldon‘a karşı durmaya çalışacaklardır.

Warcraft: İki Dünyanın İlk Karşılaşması (2016) (Warcraft) | tt0803096 Filmi Imdb'den 250,000 kişi tarafından oylandı ve 6,8 puan aldı. Bu film için editör puanı %79 olarak belirlendi. İyi Seyirler!

Teknik Detaylar

Kod :
General
Unique ID                                : 282290199928401772358233180703359845045 (0xD45F1D6A689C06F313A71B9AA19542B5)
Complete name                            : C:\Users\Administrator\Desktop\6\Warcraft.İki.Dünyanın.İlk.Karşılaşması.2016.2160p.4K.BluRay.x265.10Bit.HDR.HEVC.TR.ENG.Filmbol.mkv
Format                                  : Matroska
Format version                          : Version 4
File size                                : 15.6 GiB
Duration                                : 2 h 3 min
Overall bit rate mode                    : Variable
Overall bit rate                        : 18.1 Mb/s
Movie name                              : Warcraft: İki Dünyanın İlk Karşılaşması - Warcraft - 2016 | Filmbol.org
Encoded date                            : UTC 2021-08-04 09:36:35
Writing application                      : mkvmerge v59.0.0 ('Shining Star') 64-bit
Writing library                          : libebml v1.4.2 + libmatroska v1.6.4

Video
ID                                      : 1
Format                                  : HEVC
Format/Info                              : High Efficiency Video Coding
Format profile                          : Main [email protected]@High
HDR format                              : SMPTE ST 2086, HDR10 compatible
Codec ID                                : V_MPEGH/ISO/HEVC
Duration                                : 2 h 3 min
Bit rate                                : 12.6 Mb/s
Width                                    : 3 840 pixels
Height                                  : 1 580 pixels
Display aspect ratio                    : 2.40:1
Frame rate mode                          : Constant
Frame rate                              : 23.976 (24000/1001) FPS
Color space                              : YUV
Chroma subsampling                      : 4:2:0 (Type 2)
Bit depth                                : 10 bits
Bits/(Pixel*Frame)                      : 0.086
Stream size                              : 10.8 GiB (69%)
Writing library                          : x265 2.5+38-8a121d8cc134:[Windows][GCC 6.2.1][64 bit] 10bit
Encoding settings                        : cpuid=1173503 / frame-threads=4 / numa-pools=20 / wpp / no-pmode / no-pme / no-psnr / no-ssim / log-level=2 / input-csp=1 / input-res=3840x1580 / interlace=0 / total-frames=177147 / level-idc=51 / high-tier=1 / uhd-bd=0 / ref=4 / no-allow-non-conformance / repeat-headers / annexb / aud / hrd / info / hash=0 / no-temporal-layers / no-open-gop / min-keyint=1 / keyint=24 / bframes=4 / b-adapt=2 / b-pyramid / bframe-bias=0 / rc-lookahead=25 / lookahead-slices=4 / scenecut=40 / no-intra-refresh / ctu=64 / min-cu-size=8 / rect / no-amp / max-tu-size=32 / tu-inter-depth=1 / tu-intra-depth=1 / limit-tu=0 / rdoq-level=2 / dynamic-rd=0.00 / no-ssim-rd / signhide / no-tskip / nr-intra=0 / nr-inter=0 / no-constrained-intra / no-strong-intra-smoothing / max-merge=3 / limit-refs=3 / limit-modes / me=3 / subme=3 / merange=57 / temporal-mvp / weightp / no-weightb / no-analyze-src-pics / deblock=-3:-3 / no-sao / no-sao-non-deblock / rd=4 / no-early-skip / rskip / no-fast-intra / no-tskip-fast / no-cu-lossless / no-b-intra / no-splitrd-skip / rdpenalty=0 / psy-rd=2.00 / psy-rdoq=1.00 / no-rd-refine / analysis-reuse-mode=0 / no-lossless / cbqpoffs=0 / crqpoffs=0 / rc=crf / crf=17.0 / qcomp=0.60 / qpstep=4 / stats-write=0 / stats-read=0 / vbv-maxrate=160000 / vbv-bufsize=160000 / vbv-init=0.9 / crf-max=0.0 / crf-min=0.0 / ipratio=1.40 / pbratio=1.30 / aq-mode=1 / aq-strength=1.00 / cutree / zone-count=0 / no-strict-cbr / qg-size=32 / no-rc-grain / qpmax=69 / qpmin=0 / no-const-vbv / sar=1 / overscan=0 / videoformat=5 / range=0 / colorprim=9 / transfer=16 / colormatrix=9 / chromaloc=1 / chromaloc-top=2 / chromaloc-bottom=2 / display-window=0 / master-display=G(13250,34500)B(7500,3000)R(34000,16000)WP(15635,16450)L(10000000,0) / max-cll=0,0 / min-luma=0 / max-luma=1023 / log2-max-poc-lsb=8 / vui-timing-info / vui-hrd-info / slices=1 / opt-qp-pps / opt-ref-list-length-pps / no-multi-pass-opt-rps / scenecut-bias=0.05 / no-opt-cu-delta-qp / no-aq-motion / hdr / hdr-opt / no-dhdr10-opt / analysis-reuse-level=5 / scale-factor=0 / refine-intra=0 / refine-inter=0 / refine-mv=0 / no-limit-sao / ctu-info=0 / no-lowpass-dct
Language                                : English
Default                                  : Yes
Forced                                  : No
Color range                              : Limited
Color primaries                          : BT.2020
Transfer characteristics                : PQ
Matrix coefficients                      : BT.2020 non-constant
Mastering display color primaries        : Display P3
Mastering display luminance              : min: 0.0000 cd/m2, max: 1000 cd/m2

Audio #1
ID                                      : 2
Format                                  : AC-3
Format/Info                              : Audio Coding 3
Commercial name                          : Dolby Digital
Codec ID                                : A_AC3
Duration                                : 2 h 3 min
Bit rate mode                            : Constant
Bit rate                                : 640 kb/s
Channel(s)                              : 6 channels
Channel layout                          : L R C LFE Ls Rs
Sampling rate                            : 48.0 kHz
Frame rate                              : 31.250 FPS (1536 SPF)
Compression mode                        : Lossy
Delay relative to video                  : 1 s 0 ms
Stream size                              : 564 MiB (4%)
Title                                    : Türkçe - Filmbol.org
Language                                : Turkish
Service kind                            : Complete Main
Default                                  : Yes
Forced                                  : No

Audio #2
ID                                      : 3
Format                                  : MLP FBA 16-ch
Format/Info                              : Meridian Lossless Packing FBA with 16-channel presentation
Commercial name                          : Dolby TrueHD with Dolby Atmos
Codec ID                                : A_TRUEHD
Duration                                : 2 h 3 min
Bit rate mode                            : Variable
Bit rate                                : 4 834 kb/s
Maximum bit rate                        : 7 893 kb/s
Channel(s)                              : 8 channels
Channel layout                          : L R C LFE Ls Rs Lb Rb
Sampling rate                            : 48.0 kHz
Frame rate                              : 1 200.000 FPS (40 SPF)
Compression mode                        : Lossless
Stream size                              : 4.16 GiB (27%)
Title                                    : Orijinal Dil - Filmbol.org
Language                                : English
Default                                  : Yes
Forced                                  : No
Number of dynamic objects                : 11
Bed channel count                        : 1 channel
Bed channel configuration                : LFE

Text #1
ID                                      : 4
Format                                  : UTF-8
Codec ID                                : S_TEXT/UTF8
Codec ID/Info                            : UTF-8 Plain Text
Duration                                : 1 h 52 min
Bit rate                                : 40 b/s
Count of elements                        : 858
Stream size                              : 33.1 KiB (0%)
Title                                    : Türkçe - Filmbol.org
Language                                : Turkish
Default                                  : No
Forced                                  : No

Text #2
ID                                      : 5
Format                                  : PGS
Muxing mode                              : zlib
Codec ID                                : S_HDMV/PGS
Codec ID/Info                            : Picture based subtitle format used on BDs/HD-DVDs
Duration                                : 1 h 53 min
Bit rate                                : 28.9 kb/s
Count of elements                        : 2786
Stream size                              : 23.5 MiB (0%)
Title                                    : Orijinal Dil - Filmbol.org
Language                                : English
Default                                  : No
Forced                                  : No

Film Detayları


 Warcraft: İki Dünyanın İlk Karşılaşması

 Warcraft: İki Dünyanın İlk Karşılaşması

 Warcraft: İki Dünyanın İlk Karşılaşması


Film Fragmanı


Film Detayları



Zip Şifresi: filmbol.org Aşağıdaki butona tıklayarak kopyalabilirsiniz.





Filmbol Cloud

Bunun için üzgünüz ancak, bu linke sadece premium üyeler erişebilir.




WWW


Hızlı Menü: