Filmbol Forum Film İndir FHD - FULL HD v Gece Hayvanları (Nocturnal Animals) - 2016 - TR+ORG - FHD - x264 | tt4550098
Bildirimi Kapat
Merhaba , site giderlerini bir nebze olsun karşılamak adına link kısaltma servisleri kullanmaya başladık. İndirme linkleri sizi ouo.io adresinde yönlendirecek, 3 saniye geçtikten sonra Get Link butonuna tıklayarak linke ulaşacaksınız. Premium üyeler bu durumdan etkilenmeyecektir.


Premium Üyelik Al

Gece Hayvanları (Nocturnal Animals) - 2016 - TR+ORG - FHD - x264 | tt4550098
BroserBros
Gece Hayvanları (Nocturnal Animals) - 2016 - TR+ORG - FHD - x264 | tt4550098
0
31
  • Derecelendirme: 0/5 - 0 oy
  • 1
  • 2
  • 3
  • 4
  • 5
Konuyu Okuyanlar:1 Ziyaretçi
Şuan Online!
Filmin Yayınlanma Tarihi: 2016 
Şuan Online!
BroserBros Kurucu Admin
*******
Admin


 Gece Hayvanları



Susan Morrow, 19 yıl önce yazar eşi Edward Sheffield’ı terk eder. İkinci evliliğinde ise bir doktorun eşi olarak düzenli bir hayat sürmektedir. Bir gün posta kutusunda eski eşinin hiç yayımlanmamış olan ilk romanının taslağını bulur. Eski eş kendisinin fikrini sormaktadır. Susan, bir matematik profesörü olan eski eşi Tony’nin ailesi ile çıktığı bir yolculuğu anlatan “Noctural Animals” adındaki bu kitabı elinden bırakamaz. Kitabın kahramanı Tony’nin hayatı berbat bir hale geldikçe Susan da geçmişini hatırlayacaktır. Bu tehlikeli duygular onun geleceğini kemirecek ve hayatını değiştirecektir.
Austin Wright’ın 1993 tarihli “Tony ve Susan” romanından uyarlanan filmin yönetmen koltuğunda A Single Man (2009) filminden tanıdığımız Tom Ford oturuyor. Senaryosunu da Ford’un üstlendiği filmin oyuncu kadrosunda ise Amy Adams, Jake Gyllenhaal, Michael Shannon, Aaron Taylor-Johnson, Isla Fisher ve Armie Hammer gibi ünlü oyuncular yer alıyor.

Gece Hayvanları (2016) (Nocturnal Animals) | tt4550098 Filmi Imdb'den 250,000 kişi tarafından oylandı ve 7,5 puan aldı. Bu film için editör puanı %81 olarak belirlendi. İyi Seyirler!

Teknik Detaylar

Kod :
General
Unique ID                                : 326561119009575061812605331857239464144 (0xF5AD623F3AE67847646AEF29764C58D0)
Complete name                            : C:\Users\Administrator\Desktop\8\Gece.Hayvanları.2016.FHD.BluRay.x264.TR.ENG.Filmbol.mkv
Format                                   : Matroska
Format version                           : Version 4
File size                                : 3.71 GiB
Duration                                 : 1 h 56 min
Overall bit rate                         : 4 560 kb/s
Movie name                               : Gece Hayvanları - Nocturnal Animals - 2016 | Filmbol.org
Encoded date                             : UTC 2021-07-25 09:11:50
Writing application                      : mkvmerge v59.0.0 ('Shining Star') 64-bit
Writing library                          : libebml v1.4.2 + libmatroska v1.6.4

Video
ID                                       : 1
Format                                   : AVC
Format/Info                              : Advanced Video Codec
Format profile                           : [email protected]
Format settings                          : CABAC / 5 Ref Frames
Format settings, CABAC                   : Yes
Format settings, Reference frames        : 5 frames
Codec ID                                 : V_MPEG4/ISO/AVC
Duration                                 : 1 h 56 min
Bit rate                                 : 3 550 kb/s
Width                                    : 1 916 pixels
Height                                   : 788 pixels
Display aspect ratio                     : 2.40:1
Frame rate mode                          : Constant
Frame rate                               : 23.976 (24000/1001) FPS
Color space                              : YUV
Chroma subsampling                       : 4:2:0
Bit depth                                : 8 bits
Scan type                                : Progressive
Bits/(Pixel*Frame)                       : 0.098
Stream size                              : 2.88 GiB (78%)
Title                                    : FHD - Filmbol.org
Writing library                          : x264 core 148 r2638 7599210
Encoding settings                        : cabac=1 / ref=5 / deblock=1:-1:-1 / analyse=0x3:0x133 / me=umh / subme=7 / psy=1 / psy_rd=1.00:0.00 / mixed_ref=1 / me_range=30 / chroma_me=1 / trellis=1 / 8x8dct=1 / cqm=2 / deadzone=21,11 / fast_pskip=0 / chroma_qp_offset=-2 / threads=12 / lookahead_threads=3 / sliced_threads=0 / slices=4 / nr=0 / decimate=1 / interlaced=0 / bluray_compat=0 / constrained_intra=0 / bframes=5 / b_pyramid=2 / b_adapt=2 / b_bias=0 / direct=3 / weightb=1 / open_gop=0 / weightp=2 / keyint=240 / keyint_min=23 / scenecut=40 / intra_refresh=0 / rc_lookahead=50 / rc=2pass / mbtree=1 / bitrate=3550 / ratetol=1.0 / qcomp=0.60 / qpmin=1 / qpmax=69 / qpstep=4 / cplxblur=20.0 / qblur=0.5 / vbv_maxrate=62500 / vbv_bufsize=78125 / nal_hrd=none / filler=0 / ip_ratio=1.40 / aq=1:1.00
Language                                 : English
Default                                  : Yes
Forced                                   : No

Audio #1
ID                                       : 2
Format                                   : E-AC-3
Format/Info                              : Enhanced AC-3
Commercial name                          : Dolby Digital Plus
Codec ID                                 : A_EAC3
Duration                                 : 1 h 56 min
Bit rate mode                            : Constant
Bit rate                                 : 640 kb/s
Channel(s)                               : 6 channels
Channel layout                           : L R C LFE Ls Rs
Sampling rate                            : 48.0 kHz
Frame rate                               : 31.250 FPS (1536 SPF)
Compression mode                         : Lossy
Stream size                              : 534 MiB (14%)
Title                                    : Türkçe - Filmbol.org
Language                                 : Turkish
Service kind                             : Complete Main
Default                                  : Yes
Forced                                   : No

Audio #2
ID                                       : 3
Format                                   : AC-3
Format/Info                              : Audio Coding 3
Commercial name                          : Dolby Digital
Codec ID                                 : A_AC3
Duration                                 : 1 h 56 min
Bit rate mode                            : Constant
Bit rate                                 : 384 kb/s
Channel(s)                               : 6 channels
Channel layout                           : L R C LFE Ls Rs
Sampling rate                            : 48.0 kHz
Frame rate                               : 31.250 FPS (1536 SPF)
Compression mode                         : Lossy
Stream size                              : 319 MiB (8%)
Title                                    : Orijinal Dil - Filmbol.org
Language                                 : English
Service kind                             : Complete Main
Default                                  : No
Forced                                   : No

Text
ID                                       : 4
Format                                   : UTF-8
Codec ID                                 : S_TEXT/UTF8
Codec ID/Info                            : UTF-8 Plain Text
Duration                                 : 1 h 45 min
Bit rate                                 : 63 b/s
Count of elements                        : 1196
Stream size                              : 49.5 KiB (0%)
Title                                    : Türkçe - Filmbol.org
Language                                 : Turkish
Default                                  : No
Forced                                   : No

Film Detayları


 Gece Hayvanları

 Gece Hayvanları

 Gece Hayvanları


Film Fragmanı


Film Detayları



Zip Şifresi: filmbol.org Aşağıdaki butona tıklayarak kopyalabilirsiniz.





Filmbol Cloud

Bunun için üzgünüz ancak, bu linke sadece premium üyeler erişebilir.




WWW


Hızlı Menü: