Filmbol Forum Film İndir UHD - ULTRA HD - 4K v Robocop (RoboCop) - 2014 - TR+ORG - 4K (Re-Encoding 1080P) | HEVC - 10Bit-x265 | tt1234721
Bildirimi Kapat
Merhaba , site giderlerini bir nebze olsun karşılamak adına link kısaltma servisleri kullanmaya başladık. İndirme linkleri sizi ouo.io adresinde yönlendirecek, 3 saniye geçtikten sonra Get Link butonuna tıklayarak linke ulaşacaksınız. Premium üyeler bu durumdan etkilenmeyecektir.


Premium Üyelik Al

Robocop (RoboCop) - 2014 - TR+ORG - 4K (Re-Encoding 1080P) | HEVC - 10Bit-x265 | tt1234721
TheSteeL
Robocop (RoboCop) - 2014 - TR+ORG - 4K (Re-Encoding 1080P) | HEVC - 10Bit-x265 | tt1234721
10
243
  • Derecelendirme: 0/5 - 0 oy
  • 1
  • 2
  • 3
  • 4
  • 5
Konuyu Okuyanlar:2 Ziyaretçi
Şuan Online!
Filmin Yayınlanma Tarihi: 2014 
Şuan Online!
TheSteeL Chief Executive Officer
******
CEO


 Robocop



Robocop, günümüzden çok ileri bir zamanı baz alıyor. Teknolojinin ilerlemesi ile doğru orantılı olarak ilginç bir şekilde suç oranı da artmıştır. Bu artış ile birlikte, insanoğlu suçla mücadele için yeni çözümler üretmeye başlamıştır. Bu işi açık ara en iyi şekilde yapan OmniCorp, dünyanın en zengin şirketi olmayı başarmış ve sürekli kendini geliştirmeye devam etmektedir. Çıkardığı tamamen robot polisler görevleri yerine getirme konusunda tüm insanlığın onayı almıştır. Bu durumda durdurulamaz bir güç haline gelen OmniCorp, yeni teknolojilerini üretmeye başlamıştır. Bu yeni teknoloji yarı insan ve yarı robot olan bir polis içermektedir. Fakat bu işlemi gerçekleştirebilmek için şirkete kobay lazımdır. Alex Murphy ise bir polis memuru olsa da geçireceği kaza ile yaşam olanağını sıfır olur. Bu durumda şirketin yeni test insanı yarı insan yarı robot olan Murphy, yani RoboCop olacaktır. Fakat herşey şirketin planladığı gibi gitmeyecektir...

Robocop (2014) (RoboCop) | tt1234721 Filmi Imdb'den 219000 kişi tarafından oylandı ve 6,1 puan aldı. Bu film için editör puanı %72 olarak belirlendi. İyi Seyirler!

Teknik Detaylar

Kod :
General
Unique ID                                : 228170330993651316181237072701080466551 (0xABA801DDA2BB924B093D4904900BF477)
Complete name                            : /home/TheSteel/Desktop/2/Robocop.2014.1080p.4K.Bluray.x265.HDR.HEVC.TR.ENG.Filmbol.mkv
Format                                  : Matroska
Format version                          : Version 4
File size                                : 6.75 GiB
Duration                                : 1 h 57 min
Overall bit rate mode                    : Variable
Overall bit rate                        : 8 225 kb/s
Movie name                              : Robocop - 2014 | Filmbol.org
Encoded date                            : UTC 2021-07-06 21:16:26
Writing application                      : mkvmerge v31.0.0 ('Dolores In A Shoestand') 64-bit
Writing library                          : libebml v1.3.6 + libmatroska v1.4.9

Video
ID                                      : 1
Format                                  : HEVC
Format/Info                              : High Efficiency Video Coding
Format profile                          : Main [email protected]@Main
Codec ID                                : V_MPEGH/ISO/HEVC
Duration                                : 1 h 57 min
Bit rate                                : 3 820 kb/s
Width                                    : 1 920 pixels
Height                                  : 1 080 pixels
Display aspect ratio                    : 16:9
Frame rate mode                          : Constant
Frame rate                              : 23.976 (24000/1001) FPS
Color space                              : YUV
Chroma subsampling                      : 4:2:0
Bit depth                                : 10 bits
Bits/(Pixel*Frame)                      : 0.077
Stream size                              : 3.13 GiB (46%)
Title                                    : 4K - Filmbol.org
Writing library                          : x265 3.2+35-acc5d16999e2:[Windows][GCC 9.2.1][64 bit] 10bit
Encoding settings                        : cpuid=1049583 / frame-threads=5 / numa-pools=16,16 / wpp / no-pmode / no-pme / no-psnr / no-ssim / log-level=2 / input-csp=1 / input-res=1920x1080 / interlace=0 / total-frames=0 / level-idc=0 / high-tier=1 / uhd-bd=0 / ref=4 / no-allow-non-conformance / no-repeat-headers / annexb / no-aud / no-hrd / info / hash=0 / no-temporal-layers / open-gop / min-keyint=23 / keyint=250 / gop-lookahead=0 / bframes=8 / b-adapt=2 / b-pyramid / bframe-bias=0 / rc-lookahead=80 / lookahead-slices=4 / scenecut=40 / hist-scenecut=0 / radl=0 / no-splice / no-intra-refresh / ctu=64 / min-cu-size=8 / no-rect / no-amp / max-tu-size=32 / tu-inter-depth=1 / tu-intra-depth=1 / limit-tu=0 / rdoq-level=2 / dynamic-rd=0.00 / no-ssim-rd / signhide / no-tskip / nr-intra=0 / nr-inter=0 / no-constrained-intra / no-strong-intra-smoothing / max-merge=3 / limit-refs=3 / limit-modes / me=3 / subme=5 / merange=57 / temporal-mvp / no-frame-dup / no-hme / weightp / no-weightb / no-analyze-src-pics / deblock=0:0 / sao / no-sao-non-deblock / rd=4 / selective-sao=4 / no-early-skip / rskip / no-fast-intra / no-tskip-fast / no-cu-lossless / no-b-intra / no-splitrd-skip / rdpenalty=0 / psy-rd=1.30 / psy-rdoq=2.00 / no-rd-refine / no-lossless / cbqpoffs=0 / crqpoffs=0 / rc=crf / crf=19.0 / qcomp=0.60 / qpstep=4 / stats-write=0 / stats-read=0 / ipratio=1.40 / pbratio=1.30 / aq-mode=4 / aq-strength=1.10 / cutree / zone-count=0 / no-strict-cbr / qg-size=32 / no-rc-grain / qpmax=69 / qpmin=0 / no-const-vbv / sar=1 / overscan=0 / videoformat=5 / range=0 / colorprim=2 / transfer=2 / colormatrix=2 / chromaloc=0 / display-window=0 / cll=0,0 / min-luma=0 / max-luma=1023 / log2-max-poc-lsb=8 / vui-timing-info / vui-hrd-info / slices=1 / no-opt-qp-pps / no-opt-ref-list-length-pps / no-multi-pass-opt-rps / scenecut-bias=0.05 / hist-threshold=0.01 / no-opt-cu-delta-qp / no-aq-motion / no-hdr10 / no-hdr10-opt / no-dhdr10-opt / no-idr-recovery-sei / analysis-reuse-level=0 / analysis-save-reuse-level=0 / analysis-load-reuse-level=0 / scale-factor=0 / refine-intra=0 / refine-inter=0 / refine-mv=1 / refine-ctu-distortion=0 / no-limit-sao / ctu-info=0 / no-lowpass-dct / refine-analysis-type=0 / copy-pic=1 / max-ausize-factor=1.0 / no-dynamic-refine / no-single-sei / no-hevc-aq / no-svt / no-field / qp-adaptation-range=1.00 / no-scenecut-aware-qpconformance-window-offsets / right=0 / bottom=0
Language                                : English
Default                                  : Yes
Forced                                  : No
Color range                              : Limited

Audio #1
ID                                      : 2
Format                                  : AC-3
Format/Info                              : Audio Coding 3
Commercial name                          : Dolby Digital
Codec ID                                : A_AC3
Duration                                : 1 h 57 min
Bit rate mode                            : Constant
Bit rate                                : 448 kb/s
Channel(s)                              : 6 channels
Channel layout                          : L R C LFE Ls Rs
Sampling rate                            : 48.0 kHz
Frame rate                              : 31.250 FPS (1536 SPF)
Compression mode                        : Lossy
Stream size                              : 376 MiB (5%)
Title                                    : Türkçe - Filmbol.org
Language                                : English
Service kind                            : Complete Main
Default                                  : Yes
Forced                                  : No

Audio #2
ID                                      : 3
Format                                  : DTS XLL
Format/Info                              : Digital Theater Systems
Commercial name                          : DTS-HD Master Audio
Codec ID                                : A_DTS
Duration                                : 1 h 57 min
Bit rate mode                            : Variable
Bit rate                                : 3 954 kb/s
Channel(s)                              : 6 channels
Channel layout                          : C L R Ls Rs LFE
Sampling rate                            : 48.0 kHz
Frame rate                              : 93.750 FPS (512 SPF)
Bit depth                                : 24 bits
Compression mode                        : Lossless
Stream size                              : 3.24 GiB (48%)
Title                                    : Orjinal Dil - Filmbol.org
Language                                : English
Default                                  : No
Forced                                  : No

Text
ID                                      : 4
Format                                  : UTF-8
Codec ID                                : S_TEXT/UTF8
Codec ID/Info                            : UTF-8 Plain Text
Duration                                : 1 h 49 min
Bit rate                                : 67 b/s
Count of elements                        : 1247
Stream size                              : 54.0 KiB (0%)
Title                                    : Türkçe - Filmbol.org
Language                                : English
Default                                  : No
Forced                                  : No

Film Detayları


 Robocop

 Robocop

 Robocop


Film Fragmanı


Film Detayları



Zip Şifresi: filmbol.org Aşağıdaki butona tıklayarak kopyalabilirsiniz.


Bu filmin orijinal DVD'si 4K olarak yayınlanmadığı için, tarafımızca yeniden x265 codec yapısı ile encode edilmiş ve genişlik ve yükseklik değeri sabit kalsa da bitrate oranı artırılmıştır. Sürüm 4K ile aynı kaliteye getirilmiştir.







Filmbol Cloud

Bunun için üzgünüz ancak, bu linke sadece premium üyeler erişebilir.




WWW
Şuan Offine!
Şuan Offine!
Dr.Arhan Yeni Üye
*
Üye
  • Konular0
  • Mesajlar8
  • Rep puanı 0
İlk indirmem olacak umarım
Şuan Online!
Şuan Online!
TheSteeL Chief Executive Officer
******
CEO
(28-07-2021, Saat: 08:36)Dr.Arhan Adlı Kullanıcıdan Alıntı: İlk indirmem olacak umarım
İyi Seyirler Bir Sıkıntı Olursa Yardımcı Olurum Özel Mesaj Atman Yeterli.
Şuan Offine!
Şuan Offine!
Dr.Arhan Yeni Üye
*
Üye
  • Konular0
  • Mesajlar8
  • Rep puanı 0
Elinize sağlık bir sıkıntı yok. Fakat orijinal ses dosyasının video dosyasından büyük olduğunu görünce şaşırmadım değil Smile
Şuan Online!
Şuan Online!
TheSteeL Chief Executive Officer
******
CEO
(29-07-2021, Saat: 03:14)Dr.Arhan Adlı Kullanıcıdan Alıntı: Elinize sağlık bir sıkıntı yok. Fakat orijinal ses dosyasının video dosyasından büyük olduğunu görünce şaşırmadım değil Smile
Anladım DTS Ses Olduğu İçin GB Si Yüksek Olması Normal X265 Gibi Yüksek Verimli Bir Sıkıştırma Formatı İle Sıkıştırıldığı İçin Kalitede Asla Bir Sıkıntı Olmuyor. Beğendiğinize Sevindim
Şuan Offine!
Şuan Offine!
Dr.Arhan Yeni Üye
*
Üye
  • Konular0
  • Mesajlar8
  • Rep puanı 0
(29-07-2021, Saat: 04:13)TheSteeL Adlı Kullanıcıdan Alıntı:
(29-07-2021, Saat: 03:14)Dr.Arhan Adlı Kullanıcıdan Alıntı: Elinize sağlık bir sıkıntı yok. Fakat orijinal ses dosyasının video dosyasından büyük olduğunu görünce şaşırmadım değil Smile
Anladım DTS Ses Olduğu İçin GB Si Yüksek Olması Normal X265 Gibi Yüksek Verimli Bir Sıkıştırma Formatı İle Sıkıştırıldığı İçin Kalitede Asla Bir Sıkıntı Olmuyor. Beğendiğinize Sevindim

Yo kalite çok iyi. Ona laf yok zaten.
Ben şahsen mümkün olduğunca x265 tercih ediyorum.  x265 riplerin çoğalmasını da isterim.  Ayrıca ses dosyalarının sıkıştılmasını gereksiz ve yanlış görüyorum çoğu durumda. Mesela bazı yerlerde AC-3 384 kpbs fiks görüyorum filmlerde. Orijinalinin bit oranı daha fazla olmasına rağmen. Ne gereği var? Orijinali gibi 640 ekle. Boyutta ne fark edecek ki? Kaliteden neden ödün veriyorsun? Ya da E-AC3 ekle varsa. Ya da mümkünse DTS ekle.
Şuan Online!
Şuan Online!
TheSteeL Chief Executive Officer
******
CEO
(29-07-2021, Saat: 05:51)Dr.Arhan Adlı Kullanıcıdan Alıntı:
(29-07-2021, Saat: 04:13)TheSteeL Adlı Kullanıcıdan Alıntı: Anladım DTS Ses Olduğu İçin GB Si Yüksek Olması Normal X265 Gibi Yüksek Verimli Bir Sıkıştırma Formatı İle Sıkıştırıldığı İçin Kalitede Asla Bir Sıkıntı Olmuyor. Beğendiğinize Sevindim

Yo kalite çok iyi. Ona laf yok zaten.
Ben şahsen mümkün olduğunca x265 tercih ediyorum.  x265 riplerin çoğalmasını da isterim.  Ayrıca ses dosyalarının sıkıştılmasını gereksiz ve yanlış görüyorum çoğu durumda. Mesela bazı yerlerde AC-3 384 kpbs fiks görüyorum filmlerde. Orijinalinin bit oranı daha fazla olmasına rağmen. Ne gereği var? Orijinali gibi 640 ekle. Boyutta ne fark edecek ki? Kaliteden neden ödün veriyorsun? Ya da E-AC3 ekle varsa. Ya da mümkünse DTS ekle.
Mümkün Olan En Üst Kaliteli Sesi Ekliyoruz 720P Olsa Bile Elimizdeki En Kaliteli Sesi Kullanıyoruz. X265 Sevmeyenler İçinde X264 FHD Koyduk Onunda Kalitesi Gayet Yüksek.
Şuan Offine!
Şuan Offine!
Dr.Arhan Yeni Üye
*
Üye
  • Konular0
  • Mesajlar8
  • Rep puanı 0
(29-07-2021, Saat: 13:48)TheSteeL Adlı Kullanıcıdan Alıntı:
(29-07-2021, Saat: 05:51)Dr.Arhan Adlı Kullanıcıdan Alıntı: Yo kalite çok iyi. Ona laf yok zaten.
Ben şahsen mümkün olduğunca x265 tercih ediyorum.  x265 riplerin çoğalmasını da isterim.  Ayrıca ses dosyalarının sıkıştılmasını gereksiz ve yanlış görüyorum çoğu durumda. Mesela bazı yerlerde AC-3 384 kpbs fiks görüyorum filmlerde. Orijinalinin bit oranı daha fazla olmasına rağmen. Ne gereği var? Orijinali gibi 640 ekle. Boyutta ne fark edecek ki? Kaliteden neden ödün veriyorsun? Ya da E-AC3 ekle varsa. Ya da mümkünse DTS ekle.
Mümkün Olan En Üst Kaliteli Sesi Ekliyoruz 720P Olsa Bile Elimizdeki En Kaliteli Sesi Kullanıyoruz. X265 Sevmeyenler İçinde X264 FHD Koyduk Onunda Kalitesi Gayet Yüksek.
Tebrik ediyorum öyleyse. Ama bence 1080p'nin standart haline gelip 4K'nın iyice yaygınlaştığı günümüzde tedavülden kalkmak üzere olan ve bir esprisi olmayan  720p'ye zamanınızı ve emeğinizi israf etmeyin derim.
Şuan Online!
Şuan Online!
TheSteeL Chief Executive Officer
******
CEO
(29-07-2021, Saat: 20:59)Dr.Arhan Adlı Kullanıcıdan Alıntı:
(29-07-2021, Saat: 13:48)TheSteeL Adlı Kullanıcıdan Alıntı: Mümkün Olan En Üst Kaliteli Sesi Ekliyoruz 720P Olsa Bile Elimizdeki En Kaliteli Sesi Kullanıyoruz. X265 Sevmeyenler İçinde X264 FHD Koyduk Onunda Kalitesi Gayet Yüksek.
Tebrik ediyorum öyleyse. Ama bence 1080p'nin standart haline gelip 4K'nın iyice yaygınlaştığı günümüzde tedavülden kalkmak üzere olan ve bir esprisi olmayan  720p'ye zamanınızı ve emeğinizi israf etmeyin derim.
Değerli Yorumun İçin Teşekkürler Dediğin Şeyi Düşünebiliriz. İyi Forumlar
Şuan Offine!
Şuan Offine!
Vatansever Uzman Üye
**
Uzman Üye
  • Konular0
  • Mesajlar47
  • Rep puanı 0
Teşekkürler  TheSteeL   Heart


Hızlı Menü: