Filmbol Forum Film İndir BRRip XviD v Yaratık: Covenant (Alien: Covenant) - 2017 - TR - BRRip XviD | tt2316204
Bildirimi Kapat
Merhaba , site giderlerini bir nebze olsun karşılamak adına link kısaltma servisleri kullanmaya başladık. İndirme linkleri sizi ouo.io adresinde yönlendirecek, 3 saniye geçtikten sonra Get Link butonuna tıklayarak linke ulaşacaksınız. Premium üyeler bu durumdan etkilenmeyecektir.


Premium Üyelik Al

Yaratık: Covenant (Alien: Covenant) - 2017 - TR - BRRip XviD | tt2316204
TheSteeL
Yaratık: Covenant (Alien: Covenant) - 2017 - TR - BRRip XviD | tt2316204
2
59
  • Derecelendirme: 0/5 - 0 oy
  • 1
  • 2
  • 3
  • 4
  • 5
Konuyu Okuyanlar:2 Ziyaretçi
Şuan Online!
Filmin Yayınlanma Tarihi: 2017 
Şuan Online!
TheSteeL Chief Executive Officer
******
CEO


 Yaratık: Covenant



Çok ileri bir tarihte geçen filmde, insanlık yeni yaşam gezegenleri aramaya başlamıştır. Dünya'nın yakın bir zamanda yok olacağını bilen insanoğlu, bu kararı alarak çok doğru bir karar almıştır. Birçok gemi aynı anda farklı rotalarda yola çıkarak aynı anda yüzlerce gezegeni gezmeyi hedeflemektedir. Fakat insanlığın gözü Covenant isimli geminin gittiği ve insanlığın "cennet" dediği gezegendedir. Covenant bu gezegene vardığında her şeyin iyi olmasını beklemektedir çünkü tüm testler başarılı bir şekilde geçmiş ve herhangi bir yaşam belirtisi yoktur. Oksijen seviyesi, su seviyesi, sıcaklık seviyesi. Kısaca her şey burada mükemmeldir. Fakat mürettebat bu cennet gezegene varıp incelemeye başladığında burada gözlerden kaçan bir yaşam formu olduğunu ve buranın cennet değil cehennem olduğunu anladığında, her şey için geç kalmış olacaklardır...

Yaratık: Covenant (2017) (Alien: Covenant) | tt2316204 Filmi Imdb'den 261000 kişi tarafından oylandı ve 6,4 puan aldı. Bu film için editör puanı %74 olarak belirlendi. İyi Seyirler!

Teknik Detaylar

Kod :
General
Complete name                            : /home/TheSteel/Desktop/1/Yaratik.Covenant.2017.BRRip.Xvid.TR.Filmbol.avi
Format                                   : AVI
Format/Info                              : Audio Video Interleave
File size                                : 1.01 GiB
Duration                                 : 2 h 2 min
Overall bit rate                         : 1 184 kb/s

Video
ID                                       : 0
Format                                   : MPEG-4 Visual
Format profile                           : Advanced [email protected]
Format settings                          : BVOP2
Format settings, BVOP                    : 2
Format settings, QPel                    : No
Format settings, GMC                     : No warppoints
Format settings, Matrix                  : Default (H.263)
Codec ID                                 : DIVX
Codec ID/Info                            : Project Mayo
Codec ID/Hint                            : DivX 4
Duration                                 : 2 h 2 min
Bit rate                                 : 979 kb/s
Width                                    : 768 pixels
Height                                   : 320 pixels
Display aspect ratio                     : 2.40:1
Frame rate                               : 23.976 (24000/1001) FPS
Color space                              : YUV
Chroma subsampling                       : 4:2:0
Bit depth                                : 8 bits
Scan type                                : Progressive
Compression mode                         : Lossy
Bits/(Pixel*Frame)                       : 0.166
Stream size                              : 855 MiB (83%)
Writing library                          : XviD 67

Audio
ID                                       : 1
Format                                   : MPEG Audio
Format version                           : Version 1
Format profile                           : Layer 3
Codec ID                                 : 55
Codec ID/Hint                            : MP3
Duration                                 : 2 h 2 min
Bit rate mode                            : Constant
Bit rate                                 : 192 kb/s
Channel(s)                               : 2 channels
Sampling rate                            : 48.0 kHz
Compression mode                         : Lossy
Stream size                              : 168 MiB (16%)
Alignment                                : Aligned on interleaves
Interleave, duration                     : 24  ms (0.58 video frame)
Writing library                          : LAMEªªªL֋M·#m!I«FH

Film Detayları


 Yaratık: Covenant

 Yaratık: Covenant

 Yaratık: Covenant


Film Fragmanı


Film Detayları



Zip Şifresi: filmbol.org Aşağıdaki butona tıklayarak kopyalabilirsiniz.



Uptobox ile indir

1Fichier ile indir

1Fichier'den İndiremiyor musun? Tıklayın!





Filmbol Cloud

Bunun için üzgünüz ancak, bu linke sadece premium üyeler erişebilir.




WWW
Şuan Offine!
Şuan Offine!
Furkan61 Cezalı Üye
  • Konular0
  • Mesajlar329
Harika film
Şuan Online!
Şuan Online!
TheSteeL Chief Executive Officer
******
CEO
(08-07-2021, Saat: 10:25)Furkan61 Adlı Kullanıcıdan Alıntı: Harika film
İyi Seyirler


Hızlı Menü: