Filmbol Forum Film İndir BRRip XviD v Avatar - 2009 - TR - BRRip XviD | tt0499549
Bildirimi Kapat
Merhaba , site giderlerini bir nebze olsun karşılamak adına link kısaltma servisleri kullanmaya başladık. İndirme linkleri sizi ouo.io adresinde yönlendirecek, 3 saniye geçtikten sonra Get Link butonuna tıklayarak linke ulaşacaksınız. Premium üyeler bu durumdan etkilenmeyecektir.


Premium Üyelik Al

Avatar - 2009 - TR - BRRip XviD | tt0499549
TheSteeL
Avatar - 2009 - TR - BRRip XviD | tt0499549
2
111
  • Derecelendirme: 0/5 - 0 oy
  • 1
  • 2
  • 3
  • 4
  • 5
Konuyu Okuyanlar:1 Ziyaretçi
Şuan Online!
Filmin Yayınlanma Tarihi: 2009 
Şuan Online!
TheSteeL Chief Executive Officer
******
CEO


 Avatar



Avatar vizyona girdiği anda hem film eleştirmenleri, hem izleyiciler hemde tarafımızca çok beğenilmiş bir film oldu. Çok farklı konusu, üç boyutlu yapısı ve yüksek bütçesi ile Avatar, Jake isminde yarı felçli bir adamı konu ediniyor. Jake ayakları hissetmez ve bu yüzden yürüme şansı hayatı boyunca sıfır olarak devam edecektir. Fakat karşısına büyük bir fırsat çıkar. Pandora isimli bir gezegen keşfedilmiş fakat buraya gitmeden önce bazı testler yapılmalıdır. Bu yüzden son teknoloji ürünü bir sistem ile Pandora gezegeninde yeni insansı vücutlar oluşturularak dünyadan yönetilmeye devam edecektir. Jake bu seçimlere katılır ve görev alır. Şimdi bu diğer gezegende Jake artık yürüyebilecek ve koşacak hâle gelir. Ancak Jake bu duruma fazla alıştığı da, görev tehlikeye girmeye başlayacaktır...

Avatar (2009) | tt0499549 Filmi Imdb'den 1141000 kişi tarafından oylandı ve 7,8 puan aldı. Bu film için editör puanı %90 olarak belirlendi. İyi Seyirler!

Teknik Detaylar

Kod :
General
Unique ID                                : 277033541057001051810887474250328462950 (0xD06AB81F98D078D494969F1C736A5666)
Complete name                            : /home/TheSteel/Desktop/2/Avatar.2009.BRRip.Xvid.TR.Filmbol.avi
Format                                   : Matroska
Format version                           : Version 4
File size                                : 1.87 GiB
Duration                                 : 2 h 58 min
Overall bit rate                         : 1 499 kb/s
Movie name                               : Avatar - 2009 | Filmbol.org
Encoded date                             : UTC 2021-06-30 16:18:25
Writing application                      : mkvmerge v31.0.0 ('Dolores In A Shoestand') 64-bit
Writing library                          : libebml v1.3.6 + libmatroska v1.4.9
FileExtension_Invalid                    : mkv mk3d mka mks

Video
ID                                       : 1
Format                                   : MPEG-4 Visual
Format profile                           : [email protected]
Format settings, BVOP                    : No
Format settings, QPel                    : No
Format settings, GMC                     : No warppoints
Format settings, Matrix                  : Default (H.263)
Codec ID                                 : V_MS/VFW/FOURCC / FMP4
Duration                                 : 2 h 58 min
Bit rate                                 : 1 369 kb/s
Width                                    : 720 pixels
Height                                   : 400 pixels
Display aspect ratio                     : 16:9
Frame rate mode                          : Constant
Frame rate                               : 23.976 (24000/1001) FPS
Color space                              : YUV
Chroma subsampling                       : 4:2:0
Bit depth                                : 8 bits
Scan type                                : Progressive
Compression mode                         : Lossy
Bits/(Pixel*Frame)                       : 0.198
Stream size                              : 1.70 GiB (91%)
Title                                    : Avatar - 2009 | Filmbol.org
Writing library                          : Lavc56.41.100
Default                                  : Yes
Forced                                   : No

Audio
ID                                       : 2
Format                                   : MPEG Audio
Format version                           : Version 1
Format profile                           : Layer 3
Format settings                          : Joint stereo / MS Stereo
Codec ID                                 : A_MPEG/L3
Codec ID/Hint                            : MP3
Duration                                 : 2 h 58 min
Bit rate mode                            : Constant
Bit rate                                 : 128 kb/s
Channel(s)                               : 2 channels
Sampling rate                            : 48.0 kHz
Frame rate                               : 41.667 FPS (1152 SPF)
Compression mode                         : Lossy
Stream size                              : 163 MiB (9%)
Title                                    : Avatar - 2009 | Filmbol.org
Default                                  : Yes
Forced                                   : No

Film Detayları


 Avatar

 Avatar

 Avatar


Film Fragmanı


Film Detayları



Zip Şifresi: filmbol.org Aşağıdaki butona tıklayarak kopyalabilirsiniz.



Uptobox ile indir

1Fichier ile indir

1Fichier'den İndiremiyor musun? Tıklayın!





Filmbol Cloud

Bunun için üzgünüz ancak, bu linke sadece premium üyeler erişebilir.




WWW
Şuan Offine!
Şuan Offine!
Casablanca Yeni Üye
*
Üye
  • Konular0
  • Mesajlar27
  • Rep puanı 0
Teşekkür

Teşekkür
Şuan Online!
Şuan Online!
TheSteeL Chief Executive Officer
******
CEO
(01-08-2021, Saat: 01:20)Casablanca Adlı Kullanıcıdan Alıntı: Teşekkür

Teşekkür
İyi Seyirler


Hızlı Menü: