Filmbol Forum Film İndir BRRip XviD v Kız (Girl) - 2020 - TR - BRRip XviD | tt9392374
Bildirimi Kapat
Merhaba , site giderlerini bir nebze olsun karşılamak adına link kısaltma servisleri kullanmaya başladık. İndirme linkleri sizi ouo.io adresinde yönlendirecek, 3 saniye geçtikten sonra Get Link butonuna tıklayarak linke ulaşacaksınız. Premium üyeler bu durumdan etkilenmeyecektir.


Premium Üyelik Al

Kız (Girl) - 2020 - TR - BRRip XviD | tt9392374
TheSteeL
Kız (Girl) - 2020 - TR - BRRip XviD | tt9392374
0
33
  • Derecelendirme: 0/5 - 0 oy
  • 1
  • 2
  • 3
  • 4
  • 5
Konuyu Okuyanlar:2 Ziyaretçi
Şuan Online!
Filmin Yayınlanma Tarihi: 2020 
Şuan Online!
TheSteeL Chief Executive Officer
******
CEO


 Kız



Babasının istismarına küçüklükten bu yana uğrayan ve buna dur demek isteyen genç kız, zorla da olsa evden kaçmayı başarır. Hayattan büyük beklentileri yoktur, intikam arzusu ise hiç yoktur. Hayattan tek beklentisi iyi bir yaşam olan bu genç kız, eski memleketine döner. Memleketi küçük bir kasaba olduğundan burada artık düzgün bir yaşam sürebilecektir. Fakat işler pekte bu şekilde gitmez. Kasabaya vardıktan kısa bir süre sonra babasının öldüğü haberini aldığında şok olur. Şimdi önündeki yaşamda onu daha zor anlar beklemektedir çünkü kasabanın uğursuz şerifi hemen bu genç kızın peşinde düşmüştür....

Kız (2020) (Girl) | tt9392374 Filmi Imdb'den 2000 kişi tarafından oylandı ve 4,8 puan aldı. Bu film için editör puanı %58 olarak belirlendi. İyi Seyirler!

Teknik Detaylar

Kod :
General
Unique ID                                : 317791838947288483257911342201106218298 (0xEF147B5BE6A33481F487FFBC31063D3A)
Complete name                            : /home/TheSteel/Desktop/3/Girl.2020.HDRip.XViD.TR.Filmbol.avi
Format                                   : Matroska
Format version                           : Version 4
File size                                : 1.29 GiB
Duration                                 : 1 h 29 min
Overall bit rate                         : 2 057 kb/s
Movie name                               : Girl - 2020 - Filmbol.org
Encoded date                             : UTC 2021-06-17 13:24:35
Writing application                      : mkvmerge v31.0.0 ('Dolores In A Shoestand') 64-bit
Writing library                          : libebml v1.3.6 + libmatroska v1.4.9
FileExtension_Invalid                    : mkv mk3d mka mks

Video
ID                                       : 1
Format                                   : MPEG-4 Visual
Format profile                           : Advanced [email protected]
Format settings                          : BVOP1 / Custom Matrix
Format settings, BVOP                    : 1
Format settings, QPel                    : No
Format settings, GMC                     : No warppoints
Format settings, Matrix                  : Custom
Codec ID                                 : V_MS/VFW/FOURCC / XVID
Codec ID/Hint                            : XviD
Duration                                 : 1 h 29 min
Bit rate                                 : 1 927 kb/s
Width                                    : 720 pixels
Height                                   : 304 pixels
Display aspect ratio                     : 2.35:1
Frame rate mode                          : Constant
Frame rate                               : 23.976 (23976/1000) FPS
Color space                              : YUV
Chroma subsampling                       : 4:2:0
Bit depth                                : 8 bits
Scan type                                : Progressive
Compression mode                         : Lossy
Bits/(Pixel*Frame)                       : 0.367
Stream size                              : 1.21 GiB (94%)
Title                                    : Girl - 2020 - Filmbol.org
Writing library                          : XviD 73
Default                                  : Yes
Forced                                   : No

Audio
ID                                       : 2
Format                                   : MPEG Audio
Format version                           : Version 1
Format profile                           : Layer 3
Format settings                          : Joint stereo / MS Stereo
Codec ID                                 : A_MPEG/L3
Codec ID/Hint                            : MP3
Duration                                 : 1 h 29 min
Bit rate mode                            : Constant
Bit rate                                 : 128 kb/s
Channel(s)                               : 2 channels
Sampling rate                            : 48.0 kHz
Frame rate                               : 41.667 FPS (1152 SPF)
Compression mode                         : Lossy
Stream size                              : 82.3 MiB (6%)
Title                                    : Girl - 2020 - Filmbol.org
Default                                  : Yes
Forced                                   : No

Film Detayları


 Kız

 Kız

 Kız


Film Fragmanı


Film Detayları



Zip Şifresi: filmbol.org Aşağıdaki butona tıklayarak kopyalabilirsiniz.



Uptobox ile indir

1Fichier ile indir

1Fichier'den İndiremiyor musun? Tıklayın!





Filmbol Cloud

Bunun için üzgünüz ancak, bu linke sadece premium üyeler erişebilir.




WWW


Hızlı Menü: