Filmbol Forum Film İndir 1080P v Sihirli Ejder (Wish Dragon) - 2021 - TR+ORG - 1080P | tt5562070
Bildirimi Kapat
Merhaba , site giderlerini bir nebze olsun karşılamak adına link kısaltma servisleri kullanmaya başladık. İndirme linkleri sizi ouo.io adresinde yönlendirecek, 3 saniye geçtikten sonra Get Link butonuna tıklayarak linke ulaşacaksınız. Premium üyeler bu durumdan etkilenmeyecektir.


Premium Üyelik Al

Sihirli Ejder (Wish Dragon) - 2021 - TR+ORG - 1080P | tt5562070
TheSteeL
Sihirli Ejder (Wish Dragon) - 2021 - TR+ORG - 1080P | tt5562070
7
614
  • Derecelendirme: 0/5 - 0 oy
  • 1
  • 2
  • 3
  • 4
  • 5
Konuyu Okuyanlar:2 Ziyaretçi
Şuan Online!
Filmin Yayınlanma Tarihi: 2021 
Şuan Online!
TheSteeL Chief Executive Officer
******
CEO


 Sihirli Ejder



Zengin olmayan bir ailede dünyaya gelen Din'in babası bir işçidir. Üniversite öğrencisi olan Din'in hayatı pekte mükemmel değildir. Fakat o umudunu hiç bir zaman kaybetmez ve her zaman olumlu düşünmenin bir yolunu bulur. Sonunda ise bu iyilik meleği gibi tavırları ona çok büyük bir şans olarak döner. Din'in karşısına bir ejderha çıkmıştır. Bu ejderha etrafındaki herkese alevler püskürten bir ejderha değildir. Aksine sevimli ve onu bulan kişinin dileklerini yerine getirmeyi amaçlayan iyi kalpli bir ejderhadır. Din'in dileği ise fakir olmasına rağmen para değil, kayıp olan arkadaşını bulmaktır...

Sihirli Ejder (2021) (Wish Dragon) | tt5562070 Filmi Imdb'den 4000 kişi tarafından oylandı ve 7,2 puan aldı. Bu film için editör puanı %80 olarak belirlendi. İyi Seyirler!

Teknik Detaylar

Kod :
General
Unique ID                                : 118948461811781240279349650866326144848 (0x597CA3F426DDA05C62B2900CCBC30750)
Complete name                            : /home/TheSteel/Desktop/1/Sihirli.Ejder.2021.1080p.WEB-DL.x264.TR.ENG.Filmbol.mkv
Format                                   : Matroska
Format version                           : Version 4
File size                                : 2.02 GiB
Duration                                 : 1 h 42 min
Overall bit rate                         : 2 824 kb/s
Movie name                               : Wish Dragon - Sihirli Ejder  - 2021 | Filmbol.org
Encoded date                             : UTC 2021-06-14 17:11:57
Writing application                      : mkvmerge v31.0.0 ('Dolores In A Shoestand') 64-bit
Writing library                          : libebml v1.3.6 + libmatroska v1.4.9

Video
ID                                       : 1
Format                                   : AVC
Format/Info                              : Advanced Video Codec
Format profile                           : [email protected]
Format settings                          : CABAC / 4 Ref Frames
Format settings, CABAC                   : Yes
Format settings, Reference frames        : 4 frames
Codec ID                                 : V_MPEG4/ISO/AVC
Duration                                 : 1 h 42 min
Bit rate                                 : 2 250 kb/s
Width                                    : 1 920 pixels
Height                                   : 1 024 pixels
Display aspect ratio                     : 1.85:1
Frame rate mode                          : Constant
Frame rate                               : 23.976 (24000/1001) FPS
Color space                              : YUV
Chroma subsampling                       : 4:2:0
Bit depth                                : 8 bits
Scan type                                : Progressive
Bits/(Pixel*Frame)                       : 0.048
Stream size                              : 1.61 GiB (80%)
Title                                    : Wish Dragon - Sihirli Ejder  - 2021 | Filmbol.org
Writing library                          : x264 core 161
Encoding settings                        : cabac=1 / ref=4 / deblock=1:-1:-1 / analyse=0x3:0x133 / me=umh / subme=9 / psy=1 / psy_rd=1.00:0.15 / mixed_ref=1 / me_range=24 / chroma_me=1 / trellis=2 / 8x8dct=1 / cqm=0 / deadzone=21,11 / fast_pskip=0 / chroma_qp_offset=-3 / threads=24 / lookahead_threads=2 / sliced_threads=0 / nr=0 / decimate=1 / interlaced=0 / bluray_compat=0 / constrained_intra=0 / bframes=3 / b_pyramid=2 / b_adapt=2 / b_bias=0 / direct=3 / weightb=1 / open_gop=0 / weightp=2 / keyint=250 / keyint_min=23 / scenecut=40 / intra_refresh=0 / rc_lookahead=60 / rc=2pass / mbtree=1 / bitrate=2250 / ratetol=1.0 / qcomp=0.60 / qpmin=0 / qpmax=69 / qpstep=4 / cplxblur=20.0 / qblur=0.5 / vbv_maxrate=31250 / vbv_bufsize=31250 / nal_hrd=none / filler=0 / ip_ratio=1.40 / aq=1:1.00
Default                                  : Yes
Forced                                   : No

Audio #1
ID                                       : 2
Format                                   : AC-3
Format/Info                              : Audio Coding 3
Commercial name                          : Dolby Digital
Codec ID                                 : A_AC3
Duration                                 : 1 h 42 min
Bit rate mode                            : Constant
Bit rate                                 : 384 kb/s
Channel(s)                               : 6 channels
Channel layout                           : L R C LFE Ls Rs
Sampling rate                            : 48.0 kHz
Frame rate                               : 31.250 FPS (1536 SPF)
Compression mode                         : Lossy
Stream size                              : 281 MiB (14%)
Title                                    : Wish Dragon - Sihirli Ejder  - 2021 | Filmbol.org
Language                                 : Turkish
Service kind                             : Complete Main
Default                                  : Yes
Forced                                   : No

Audio #2
ID                                       : 3
Format                                   : AC-3
Format/Info                              : Audio Coding 3
Commercial name                          : Dolby Digital
Codec ID                                 : A_AC3
Duration                                 : 1 h 42 min
Bit rate mode                            : Constant
Bit rate                                 : 192 kb/s
Channel(s)                               : 2 channels
Channel layout                           : L R
Sampling rate                            : 48.0 kHz
Frame rate                               : 31.250 FPS (1536 SPF)
Compression mode                         : Lossy
Stream size                              : 141 MiB (7%)
Title                                    : Wish Dragon - Sihirli Ejder  - 2021 | Filmbol.org
Language                                 : English
Service kind                             : Complete Main
Default                                  : No
Forced                                   : No

Text #1
ID                                       : 4
Format                                   : UTF-8
Codec ID                                 : S_TEXT/UTF8
Codec ID/Info                            : UTF-8 Plain Text
Duration                                 : 1 h 37 min
Bit rate                                 : 0 b/s
Count of elements                        : 20
Stream size                              : 339 Bytes (0%)
Title                                    : Wish Dragon - Sihirli Ejder  - 2021 | Filmbol.org
Language                                 : Turkish
Default                                  : Yes
Forced                                   : Yes

Text #2
ID                                       : 5
Format                                   : UTF-8
Codec ID                                 : S_TEXT/UTF8
Codec ID/Info                            : UTF-8 Plain Text
Duration                                 : 1 h 37 min
Bit rate                                 : 54 b/s
Count of elements                        : 1316
Stream size                              : 39.2 KiB (0%)
Title                                    : Wish Dragon - Sihirli Ejder  - 2021 | Filmbol.org
Language                                 : Turkish
Default                                  : No
Forced                                   : No

Film Detayları


 Sihirli Ejder

 Sihirli Ejder

 Sihirli Ejder


Film Fragmanı


Film Detayları



Zip Şifresi: filmbol.org Aşağıdaki butona tıklayarak kopyalabilirsiniz.


Uptobox ile indir

1Fichier ile indir

1Fichier'den İndiremiyor musun? Tıklayın!





Filmbol Cloud

Bunun için üzgünüz ancak, bu linke sadece premium üyeler erişebilir.




WWW
Şuan Offine!
Şuan Offine!
ahmettuncr Süper Üye
***
Super Üye
  • Konular0
  • Mesajlar54
  • Rep puanı 0
film güzele benziyor
Şuan Online!
Şuan Online!
TheSteeL Chief Executive Officer
******
CEO
(18-06-2021, Saat: 21:33)ahmettuncr Adlı Kullanıcıdan Alıntı: film güzele benziyor
iyi seyirler
Şuan Online!
Şuan Online!
ahmetyee1 Süper Üye
***
Super Üye
  • Konular2
  • Mesajlar64
  • Rep puanı 0
teşekkürler
Şuan Online!
Şuan Online!
TheSteeL Chief Executive Officer
******
CEO
(22-06-2021, Saat: 16:27)ahmetyee1 Adlı Kullanıcıdan Alıntı: teşekkürler
İyi Seyirler
Şuan Offine!
Şuan Offine!
Turan Bagtur Yeni Üye
*
Üye
  • Konular0
  • Mesajlar5
  • Rep puanı 0
animasyon filmlerine pek ilgim yok ama indiresim geldi
Şuan Online!
Şuan Online!
TheSteeL Chief Executive Officer
******
CEO
(25-06-2021, Saat: 18:57)Turan Bagtur Adlı Kullanıcıdan Alıntı: animasyon filmlerine pek ilgim yok ama indiresim geldi
İyi Seyirler
Şuan Offine!
Şuan Offine!
LASTbrothers Yeni Üye
*
Üye
  • Konular0
  • Mesajlar14
  • Rep puanı 0
-Film için teşekkür ederim..


Hızlı Menü: