Filmbol Forum Film İndir UHD - ULTRA HD - 4K v Sahil Güvenlik (Baywatch) - 2017 - TR+ORG - UHD (4K) - 10Bit-x265 | tt1469304
Bildirimi Kapat
Merhaba , site giderlerini bir nebze olsun karşılamak adına link kısaltma servisleri kullanmaya başladık. İndirme linkleri sizi ouo.io adresinde yönlendirecek, 3 saniye geçtikten sonra Get Link butonuna tıklayarak linke ulaşacaksınız. Premium üyeler bu durumdan etkilenmeyecektir.


Premium Üyelik Al

Sahil Güvenlik (Baywatch) - 2017 - TR+ORG - UHD (4K) - 10Bit-x265 | tt1469304
TheSteeL
Sahil Güvenlik (Baywatch) - 2017 - TR+ORG - UHD (4K) - 10Bit-x265 | tt1469304
18
539
  • Derecelendirme: 0/5 - 0 oy
  • 1
  • 2
  • 3
  • 4
  • 5
Konuyu Okuyanlar:1 Ziyaretçi
Şuan Online!
Filmin Yayınlanma Tarihi: 2017 
Şuan Online!
TheSteeL Chief Executive Officer
******
CEO


 Sahil Güvenlik



Mitch, hayattan büyük beklentileri olmayan ancak yaptığı işi severek yapan ve en iyi şekilde yapmaya çalışan bir cankurtarandır. İşini o kadar iyi yapmaktadır ki, bölgesinde çok sevilir hale gelmiş ve resmen kahraman ilan edilmiştir. Her şey yolunda giderken yanına bir cankurtaran daha atanmıştır. Üstelik bu cankurtaran çok dengesiz ve küstah birisidir. Bu durumda Mitch ondan asla hoşlanmıyor olsa da onunla mecburi olarak çalışma gereksinimi duyduğunda işine olan saygısından tüm yaşananları unutmak zorunda kalır...

Sahil Güvenlik (2017) (Baywatch) | tt1469304 Filmi Imdb'den 168000 kişi tarafından oylandı ve 5,5 puan aldı. Bu film için editör puanı %64 olarak belirlendi. İyi Seyirler!

Teknik Detaylar

Kod :
General
Unique ID                                : 314687313477488842663551286469582913092 (0xECBE926F8AEFDCC50A462B89BB33FE44)
Complete name                            : /home/BroserBros/Desktop/1/Sahil.Güvenlik.2017.2160p.4K.BluRay.x265.10Bit.HDR.HEVC.TR.ENG.Filmbol.mkv
Format                                   : Matroska
Format version                           : Version 4
File size                                : 16.7 GiB
Duration                                 : 1 h 56 min
Overall bit rate mode                    : Variable
Overall bit rate                         : 20.6 Mb/s
Movie name                               : Sahil Güvenlik - Baywatch - 2017 | Filmbol.org
Encoded date                             : UTC 2021-06-30 13:35:05
Writing application                      : mkvmerge v53.0.0 ('Fool's Gold') 64-bit
Writing library                          : libebml v1.4.1 + libmatroska v1.6.2

Video
ID                                       : 1
Format                                   : HEVC
Format/Info                              : High Efficiency Video Coding
Format profile                           : Main [email protected]@High
HDR format                               : SMPTE ST 2086, HDR10 compatible
Codec ID                                 : V_MPEGH/ISO/HEVC
Duration                                 : 1 h 56 min
Bit rate                                 : 15.4 Mb/s
Width                                    : 3 840 pixels
Height                                   : 1 608 pixels
Display aspect ratio                     : 2.40:1
Frame rate mode                          : Constant
Frame rate                               : 23.976 (24000/1001) FPS
Color space                              : YUV
Chroma subsampling                       : 4:2:0 (Type 2)
Bit depth                                : 10 bits
Bits/(Pixel*Frame)                       : 0.104
Stream size                              : 12.6 GiB (75%)
Title                                    : 4K - Filmbol.org
Writing library                          : x265 2.5+17-f8ae7afc1f61:[Windows][GCC 6.2.1][64 bit] 10bit
Encoding settings                        : cpuid=1173503 / frame-threads=4 / numa-pools=16 / wpp / no-pmode / no-pme / no-psnr / no-ssim / log-level=2 / input-csp=1 / input-res=3840x1608 / interlace=0 / total-frames=167569 / level-idc=51 / high-tier=1 / uhd-bd=0 / ref=4 / no-allow-non-conformance / repeat-headers / annexb / aud / hrd / info / hash=0 / no-temporal-layers / no-open-gop / min-keyint=1 / keyint=24 / bframes=4 / b-adapt=2 / b-pyramid / bframe-bias=0 / rc-lookahead=25 / lookahead-slices=4 / scenecut=40 / no-intra-refresh / ctu=64 / min-cu-size=8 / rect / no-amp / max-tu-size=32 / tu-inter-depth=1 / tu-intra-depth=1 / limit-tu=0 / rdoq-level=2 / dynamic-rd=0.00 / no-ssim-rd / signhide / no-tskip / nr-intra=0 / nr-inter=0 / no-constrained-intra / no-strong-intra-smoothing / max-merge=3 / limit-refs=3 / limit-modes / me=3 / subme=3 / merange=57 / temporal-mvp / weightp / no-weightb / no-analyze-src-pics / deblock=-3:-3 / no-sao / no-sao-non-deblock / rd=4 / no-early-skip / rskip / no-fast-intra / no-tskip-fast / no-cu-lossless / no-b-intra / no-splitrd-skip / rdpenalty=0 / psy-rd=2.00 / psy-rdoq=1.00 / no-rd-refine / analysis-reuse-mode=0 / no-lossless / cbqpoffs=0 / crqpoffs=0 / rc=crf / crf=17.0 / qcomp=0.60 / qpstep=4 / stats-write=0 / stats-read=0 / vbv-maxrate=160000 / vbv-bufsize=160000 / vbv-init=0.9 / crf-max=0.0 / crf-min=0.0 / ipratio=1.40 / pbratio=1.30 / aq-mode=1 / aq-strength=1.00 / cutree / zone-count=0 / no-strict-cbr / qg-size=32 / no-rc-grain / qpmax=69 / qpmin=0 / no-const-vbv / sar=1 / overscan=0 / videoformat=5 / range=0 / colorprim=9 / transfer=16 / colormatrix=9 / chromaloc=1 / chromaloc-top=2 / chromaloc-bottom=2 / display-window=0 / master-display=G(13250,34500)B(7500,3000)R(34000,16000)WP(15635,16450)L(10000000,0) / max-cll=1000,386 / min-luma=0 / max-luma=1023 / log2-max-poc-lsb=8 / vui-timing-info / vui-hrd-info / slices=1 / opt-qp-pps / opt-ref-list-length-pps / no-multi-pass-opt-rps / scenecut-bias=0.05 / no-opt-cu-delta-qp / no-aq-motion / hdr / hdr-opt / no-dhdr10-opt / analysis-reuse-level=5 / scale-factor=0 / refine-intra=0 / refine-inter=0 / refine-mv=0 / no-limit-sao / ctu-info=0
Default                                  : Yes
Forced                                   : No
Color range                              : Limited
Color primaries                          : BT.2020
Transfer characteristics                 : PQ
Matrix coefficients                      : BT.2020 non-constant
Mastering display color primaries        : Display P3
Mastering display luminance              : min: 0.0000 cd/m2, max: 1000 cd/m2
Maximum Content Light Level              : 1000 cd/m2
Maximum Frame-Average Light Level        : 386 cd/m2

Audio #1
ID                                       : 2
Format                                   : AC-3
Format/Info                              : Audio Coding 3
Commercial name                          : Dolby Digital
Codec ID                                 : A_AC3
Duration                                 : 1 h 56 min
Bit rate mode                            : Constant
Bit rate                                 : 384 kb/s
Channel(s)                               : 6 channels
Channel layout                           : L R C LFE Ls Rs
Sampling rate                            : 48.0 kHz
Frame rate                               : 31.250 FPS (1536 SPF)
Compression mode                         : Lossy
Delay relative to video                  : 1 s 0 ms
Stream size                              : 320 MiB (2%)
Title                                    : Türkçe - Filmbol.org
Language                                 : Turkish
Service kind                             : Complete Main
Default                                  : Yes
Forced                                   : Yes

Audio #2
ID                                       : 3
Format                                   : MLP FBA 16-ch
Format/Info                              : Meridian Lossless Packing FBA with 16-channel presentation
Commercial name                          : Dolby TrueHD with Dolby Atmos
Codec ID                                 : A_TRUEHD
Duration                                 : 1 h 56 min
Bit rate mode                            : Variable
Bit rate                                 : 4 682 kb/s
Maximum bit rate                         : 7 380 kb/s
Channel(s)                               : 8 channels
Channel layout                           : L R C LFE Ls Rs Lb Rb
Sampling rate                            : 48.0 kHz
Frame rate                               : 1 200.000 FPS (40 SPF)
Compression mode                         : Lossless
Stream size                              : 3.81 GiB (23%)
Title                                    : Orijinal Dil - Filmbol.org
Language                                 : English
Default                                  : No
Forced                                   : No
Number of dynamic objects                : 11
Bed channel count                        : 1 channel
Bed channel configuration                : LFE

Text
ID                                       : 4
Format                                   : UTF-8
Codec ID                                 : S_TEXT/UTF8
Codec ID/Info                            : UTF-8 Plain Text
Duration                                 : 12 s 600 ms
Bit rate                                 : 206 b/s
Count of elements                        : 6
Stream size                              : 326 Bytes (0%)
Title                                    : Türkçe - Filmbol.org
Language                                 : Turkish
Default                                  : No
Forced                                   : No

Film Detayları


 Sahil Güvenlik

 Sahil Güvenlik

 Sahil Güvenlik


Film Fragmanı


Film Detayları



Zip Şifresi: filmbol.org Aşağıdaki butona tıklayarak kopyalabilirsiniz.





Filmbol Cloud

Bunun için üzgünüz ancak, bu linke sadece premium üyeler erişebilir.




WWW
Şuan Offine!
Şuan Offine!
Furkan61 Cezalı Üye
  • Konular0
  • Mesajlar329
saolun
Şuan Online!
Şuan Online!
TheSteeL Chief Executive Officer
******
CEO
(19-06-2021, Saat: 17:54)Furkan61 Adlı Kullanıcıdan Alıntı: saolun
İyi Seyirler
Şuan Offine!
Şuan Offine!
Furkan61 Cezalı Üye
  • Konular0
  • Mesajlar329
Merhaba bu filmin x264 4K sürümünü ekleyebilirmisiniz
Şuan Online!
Şuan Online!
BroserBros Kurucu Admin
*******
Admin
(24-06-2021, Saat: 17:09)Furkan61 Adlı Kullanıcıdan Alıntı: Merhaba bu filmin x264 4K sürümünü ekleyebilirmisiniz

4K her zaman için x265 sürümü ile yayınlanır. FHD'den daha kaliteli olmasının ana sebebi de budur. Ancak oynatıcın desteklemiyorsa veya x264 sürümü arıyorsan FHD sürümünü indirebilirsin.
Şuan Offine!
Şuan Offine!
Furkan61 Cezalı Üye
  • Konular0
  • Mesajlar329
(24-06-2021, Saat: 18:21)BroserBros Adlı Kullanıcıdan Alıntı:
(24-06-2021, Saat: 17:09)Furkan61 Adlı Kullanıcıdan Alıntı: Merhaba bu filmin x264 4K sürümünü ekleyebilirmisiniz

4K her zaman için x265 sürümü ile yayınlanır. FHD'den daha kaliteli olmasının ana sebebi de budur. Ancak oynatıcın desteklemiyorsa veya x264 sürümü arıyorsan FHD sürümünü indirebilirsin.
teşekkürler broserbros

ben bu filmi indirdim lakin süre gözükmüyor ve videoyu ilerletemiyorum bilgisayarda vlc de denedim sadece filmin yarısını gösteriyor bendenmi kaynaklı acaba
Şuan Online!
Şuan Online!
BroserBros Kurucu Admin
*******
Admin
VLC player 4K x265 sürümünü oynatamaz. Açman bile mucize olmuş. 5K Player ile açman gerekir. Google'a 5K Player yazarsan gezginlerde ve orijinal sitesinde indirme linkleri mevcut.
Şuan Offine!
Şuan Offine!
Furkan61 Cezalı Üye
  • Konular0
  • Mesajlar329
Çok teşekkür ederim BroserBros
Şuan Offine!
Şuan Offine!
Furkan61 Cezalı Üye
  • Konular0
  • Mesajlar329
BroserBros film normalde 2 saat ama bende 1 saat gözüküyor yarıda kesiliyor 3 tane pcde denedim duzeltirseniz sevinirim
Şuan Online!
Şuan Online!
BroserBros Kurucu Admin
*******
Admin
(28-06-2021, Saat: 11:05)Furkan61 Adlı Kullanıcıdan Alıntı: BroserBros film normalde 2 saat ama bende 1 saat gözüküyor yarıda kesiliyor 3 tane pcde denedim duzeltirseniz sevinirim

Özel mesaj gönderdim. Kontrol edilip düzelteceğim.


Hızlı Menü: