Filmbol Forum Film İndir UHD - ULTRA HD - 4K v Oslo (Oslo) - 2021 - TR+ORG - 4K (Re-Encoding 1080P) | HEVC - 10Bit-x265 | tt11790674

Premium Üyelik Al

Bildirimi Kapat
Mega linklerinin şikayet edilmemesi için global erişime kapatıp sadece yorum yapanlara açıyoruz. Bu linkleri gizleme işlemini mecburen yapıyoruz ve yorum yapmanızın siteye değil size faydası vardır. Teşekkürler yazmayı çok görüp, Random/Spam/Anlamsız mesajlar atarak forumu kirletip Mega linklerini açmaya çalışan kullanıcılara süresiz ban atacağız.


Oslo (Oslo) - 2021 - TR+ORG - 4K (Re-Encoding 1080P) | HEVC - 10Bit-x265 | tt11790674
TheSteeL
Oslo (Oslo) - 2021 - TR+ORG - 4K (Re-Encoding 1080P) | HEVC - 10Bit-x265 | tt11790674
0
6
  • Derecelendirme: 0/5 - 0 oy
  • 1
  • 2
  • 3
  • 4
  • 5
Konuyu Okuyanlar:1 Ziyaretçi
Şuan Online!
Filmin Yayınlanma Tarihi: 2021 
WWW
Şuan Online!
TheSteeL Süper Moderatör
*****
Süper Moderatör



 Oslo



Oslo Barış Anlaşmaları Norveç'in başkenti olan Oslo'da gerçekleştirildi. Net bir tarafsızlık ile tüm ülkelere yaklaşan Norveç'in düzenlediği bu barış anlaşmaları tüm dünya ülkeleri ile birlikte katılım gösterebileceği bir yer haline gelmişti. Oslo filmi ise yine bu Barış Anlaşmalarından birisi olan İsrail ile Filistin'in saldırmazlık anlaşmasına odaklanıyor. 1993 yılında imzalanan anlaşmaya göre iki tarafta tüm varlıklarına kanaat edip yeni bir savaşa sürüklenmeyecekti. Fakat görüşmeler bu şekilde başarılı gitse de iş kağıtta kaldı. İsrail saldırmazlık anlaşmasını bozdu ve saldırıya geçti. Bunun üzerine Filistin anlaşmayı resmen feshettiğini duyurdu.

Oslo (2021) (Oslo) | tt11790674 Filmi Imdb'den 1500 kişi tarafından oylandı ve 6,5 puan aldı. Bu film için editör puanı %68 olarak belirlendi. İyi Seyirler!

Teknik Detaylar

Kod :
General
Unique ID                                : 206109485522282530948557966681330129009 (0x9B0F3E352E0F0D9A3514598DFCBF9871)
Complete name                            : /home/TheSteel/Desktop/3/Oslo.2021.1080p.4K.BluRay.x265.10Bit.HDR.HEVC.TR.ENG.Filmbol.mkv
Format                                   : Matroska
Format version                           : Version 4
File size                                : 1.78 GiB
Duration                                 : 1 h 58 min
Overall bit rate                         : 2 162 kb/s
Encoded date                             : UTC 2021-06-02 10:09:25
Writing application                      : mkvmerge v31.0.0 ('Dolores In A Shoestand') 64-bit
Writing library                          : libebml v1.3.6 + libmatroska v1.4.9

Video
ID                                       : 1
Format                                   : HEVC
Format/Info                              : High Efficiency Video Coding
Format profile                           : Main [email protected]@Main
Codec ID                                 : V_MPEGH/ISO/HEVC
Duration                                 : 1 h 58 min
Bit rate                                 : 1 762 kb/s
Width                                    : 1 920 pixels
Height                                   : 960 pixels
Display aspect ratio                     : 2.000
Frame rate mode                          : Constant
Frame rate                               : 23.976 (24000/1001) FPS
Color space                              : YUV
Chroma subsampling                       : 4:2:0
Bit depth                                : 10 bits
Bits/(Pixel*Frame)                       : 0.040
Stream size                              : 1.45 GiB (81%)
Title                                    : Oslo - 2021 | Filmbol.org
Default                                  : Yes
Forced                                   : No
Color range                              : Limited
Color primaries                          : BT.709
Transfer characteristics                 : BT.709
Matrix coefficients                      : BT.709

Audio #1
ID                                       : 2
Format                                   : AC-3
Format/Info                              : Audio Coding 3
Commercial name                          : Dolby Digital
Codec ID                                 : A_AC3
Duration                                 : 1 h 57 min
Bit rate mode                            : Constant
Bit rate                                 : 192 kb/s
Channel(s)                               : 2 channels
Channel layout                           : L R
Sampling rate                            : 48.0 kHz
Frame rate                               : 31.250 FPS (1536 SPF)
Compression mode                         : Lossy
Stream size                              : 162 MiB (9%)
Title                                    : Oslo - 2021 | Filmbol.org
Language                                 : Turkish
Service kind                             : Complete Main
Default                                  : Yes
Forced                                   : No

Audio #2
ID                                       : 3
Format                                   : AAC LC SBR
Format/Info                              : Advanced Audio Codec Low Complexity with Spectral Band Replication
Commercial name                          : HE-AAC
Format settings                          : Explicit
Codec ID                                 : A_AAC-2
Duration                                 : 1 h 58 min
Bit rate                                 : 207 kb/s
Channel(s)                               : 6 channels
Channel layout                           : C L R Ls Rs LFE
Sampling rate                            : 48.0 kHz
Frame rate                               : 23.438 FPS (2048 SPF)
Compression mode                         : Lossy
Delay relative to video                  : 23 ms
Stream size                              : 174 MiB (10%)
Title                                    : Oslo - 2021 | Filmbol.org
Language                                 : English
Default                                  : No
Forced                                   : No

Text
ID                                       : 4
Format                                   : UTF-8
Codec ID                                 : S_TEXT/UTF8
Codec ID/Info                            : UTF-8 Plain Text
Duration                                 : 1 h 52 min
Bit rate                                 : 57 b/s
Count of elements                        : 1179
Stream size                              : 47.2 KiB (0%)
Title                                    : Oslo - 2021 | Filmbol.org
Language                                 : Turkish
Default                                  : No
Forced                                   : No

Film Detayları


 Oslo

 Oslo

 Oslo


Film Fragmanı


Film Detayları

Bu filmin orijinal DVD'si 4K olarak yayınlanmadığı için, tarafımızca yeniden x265 codec yapısı ile encode edilmiş ve genişlik ve yükseklik değeri sabit kalsa da bitrate oranı artırılmıştır. Sürüm 4K ile aynı kaliteye getirilmiştir.



Mega linki şuan da gizli. Kullanıma açmak için konuya yorum yapın ve ardından sayfayı yenileyin.

Mega


Bunun için üzgünüz ancak, bu linke sadece premium üyeler erişebilir.

Filmbol Cloud







Hızlı Menü: