Filmbol Forum Film İndir 1080P v Ölüm Defteri (Death Note: Desu nôto) - 2006 - TR+ORG - 1080P | tt0758742

Premium Üyelik Al

Bildirimi Kapat
Mega linklerinin şikayet edilmemesi için global erişime kapatıp sadece yorum yapanlara açıyoruz. Bu linkleri gizleme işlemini mecburen yapıyoruz ve yorum yapmanızın siteye değil size faydası vardır. Teşekkürler yazmayı çok görüp, Random/Spam/Anlamsız mesajlar atarak forumu kirletip Mega linklerini açmaya çalışan kullanıcılara süresiz ban atacağız.


Ölüm Defteri (Death Note: Desu nôto) - 2006 - TR+ORG - 1080P | tt0758742
TheSteeL
Ölüm Defteri (Death Note: Desu nôto) - 2006 - TR+ORG - 1080P | tt0758742
3
30
  • Derecelendirme: 0/5 - 0 oy
  • 1
  • 2
  • 3
  • 4
  • 5
Konuyu Okuyanlar:1 Ziyaretçi
Şuan Online!
Filmin Yayınlanma Tarihi: 2006 
WWW
Şuan Online!
TheSteeL Süper Moderatör
*****
Süper Moderatör



 Ölüm Defteri



Çin hayal dünyasının eseri olan Death Note üzerinden birçok dizi ve film yapılmıştır. Death Note, bir kitaptır. Ancak sanılanın aksine bu okuyabileceğiniz değil, üzerine yazı yazılabilecek bir kitaptır. Fakat sıradan yazılar kabul edilmez. Eğer buraya bir yazı yazmak isterseniz birini öldürmek zorundasınızdır. Yani oraya öldürmek istediğiniz kişiyi hayal eder ve ismini yazarsınız. Yazdığınız isim dakikalar içerisinde ölür. Bu kitap doğru kişilerin eline geçtiğinde tüm suçluları öldürebilecek güçtedir. Fakat yanlış kişilerin eline geçtiğinde bu büyük bir sorun olabilir...

Ölüm Defteri (2006) (Death Note: Desu nôto) | tt0758742 Filmi Imdb'den 29500 kişi tarafından oylandı ve 7,7 puan aldı. Bu film için editör puanı %70 olarak belirlendi. İyi Seyirler!

Teknik Detaylar

Kod :
General
Unique ID                                : 296239561978911261536255228649399247654 (0xDEDDAA10663C6CB11A4DE577A971E326)
Complete name                            : /home/TheSteel/Desktop/2/Olüm.Defteri.2006.1080p.BluRay.x264.TR.JPN.Filmbol.mkv
Format                                   : Matroska
Format version                           : Version 4
File size                                : 2.22 GiB
Duration                                 : 2 h 6 min
Overall bit rate                         : 2 510 kb/s
Movie name                               : Ölüm Deteri - Death Note - 2006 | Filmbol.org
Encoded date                             : UTC 2021-06-05 11:45:34
Writing application                      : mkvmerge v31.0.0 ('Dolores In A Shoestand') 64-bit
Writing library                          : libebml v1.3.6 + libmatroska v1.4.9

Video
ID                                       : 1
Format                                   : AVC
Format/Info                              : Advanced Video Codec
Format profile                           : [email protected]
Format settings                          : CABAC / 4 Ref Frames
Format settings, CABAC                   : Yes
Format settings, Reference frames        : 4 frames
Codec ID                                 : V_MPEG4/ISO/AVC
Duration                                 : 2 h 6 min
Bit rate                                 : 2 250 kb/s
Width                                    : 1 920 pixels
Height                                   : 1 072 pixels
Display aspect ratio                     : 16:9
Frame rate mode                          : Constant
Frame rate                               : 23.976 (24000/1001) FPS
Color space                              : YUV
Chroma subsampling                       : 4:2:0
Bit depth                                : 8 bits
Scan type                                : Progressive
Bits/(Pixel*Frame)                       : 0.046
Stream size                              : 1.99 GiB (90%)
Title                                    : 1080P - Filmbol.org
Writing library                          : x264 core 158
Encoding settings                        : cabac=1 / ref=4 / deblock=1:-1:-1 / analyse=0x3:0x133 / me=umh / subme=9 / psy=1 / psy_rd=1.00:0.15 / mixed_ref=1 / me_range=24 / chroma_me=1 / trellis=2 / 8x8dct=1 / cqm=0 / deadzone=21,11 / fast_pskip=0 / chroma_qp_offset=-3 / threads=12 / lookahead_threads=1 / sliced_threads=0 / nr=0 / decimate=1 / interlaced=0 / bluray_compat=0 / constrained_intra=0 / bframes=3 / b_pyramid=2 / b_adapt=2 / b_bias=0 / direct=3 / weightb=1 / open_gop=0 / weightp=2 / keyint=250 / keyint_min=23 / scenecut=40 / intra_refresh=0 / rc_lookahead=60 / rc=2pass / mbtree=1 / bitrate=2250 / ratetol=1.0 / qcomp=0.60 / qpmin=0 / qpmax=69 / qpstep=4 / cplxblur=20.0 / qblur=0.5 / vbv_maxrate=31250 / vbv_bufsize=31250 / nal_hrd=none / filler=0 / ip_ratio=1.40 / aq=1:1.00
Default                                  : Yes
Forced                                   : No

Audio #1
ID                                       : 2
Format                                   : AAC LC
Format/Info                              : Advanced Audio Codec Low Complexity
Codec ID                                 : A_AAC-2
Duration                                 : 2 h 6 min
Bit rate                                 : 132 kb/s
Channel(s)                               : 2 channels
Channel layout                           : L R
Sampling rate                            : 32.0 kHz
Frame rate                               : 31.250 FPS (1024 SPF)
Compression mode                         : Lossy
Delay relative to video                  : 8 ms
Stream size                              : 117 MiB (5%)
Title                                    : Türkçe - Filmbol.org
Language                                 : Turkish
Default                                  : Yes
Forced                                   : No

Audio #2
ID                                       : 3
Format                                   : AAC LC
Format/Info                              : Advanced Audio Codec Low Complexity
Codec ID                                 : A_AAC-2
Duration                                 : 2 h 6 min
Bit rate                                 : 128 kb/s
Channel(s)                               : 2 channels
Channel layout                           : L R
Sampling rate                            : 48.0 kHz
Frame rate                               : 46.875 FPS (1024 SPF)
Compression mode                         : Lossy
Stream size                              : 116 MiB (5%)
Title                                    : Orjinal Dil - Filmbol.org
Language                                 : Japanese
Default                                  : No
Forced                                   : No

Text
ID                                       : 4
Format                                   : UTF-8
Codec ID                                 : S_TEXT/UTF8
Codec ID/Info                            : UTF-8 Plain Text
Duration                                 : 1 h 58 min
Bit rate                                 : 43 b/s
Count of elements                        : 1160
Stream size                              : 38.3 KiB (0%)
Title                                    : Türkçe - Filmbol.org
Language                                 : Turkish
Default                                  : Yes
Forced                                   : No

Film Detayları


 Ölüm Defteri

 Ölüm Defteri

 Ölüm Defteri


Film Fragmanı


Film Detayları

Uptobox ile indir

1Fichier ile indir

1Fichier'den İndiremiyor musun? Tıklayın!


Mega linki şuan da gizli. Kullanıma açmak için konuya yorum yapın ve ardından sayfayı yenileyin.

Mega


Bunun için üzgünüz ancak, bu linke sadece premium üyeler erişebilir.

Filmbol Cloud





Şuan Offine!
Şuan Offine!
Ugur_1988 Premium Üye
****

  • Konular11
  • Mesajlar100
  • Rep puanı 23
Elinize sağlık çok güzel olmuş.
Şuan Online!
Şuan Online!
TheSteeL Süper Moderatör
*****
Süper Moderatör

(06-06-2021, Saat: 07:04)Ugur_1988 Adlı Kullanıcıdan Alıntı: Elinize sağlık çok güzel olmuş.
İyi Seyirler
Şuan Offine!
Şuan Offine!
ahmettuncr Süper Üye
***
Super Üye

  • Konular0
  • Mesajlar45
  • Rep puanı 0
film idare eder Angry Angry


Hızlı Menü: