Filmbol Forum Film İndir BRRip XviD v Ölüm Defteri (Death Note: Desu nôto) - 2006 - TR - BRRip XviD | tt0758742
Bildirimi Kapat
Merhaba , site giderlerini bir nebze olsun karşılamak adına link kısaltma servisleri kullanmaya başladık. İndirme linkleri sizi ouo.io adresinde yönlendirecek, 3 saniye geçtikten sonra Get Link butonuna tıklayarak linke ulaşacaksınız. Premium üyeler bu durumdan etkilenmeyecektir.


Premium Üyelik Al

Ölüm Defteri (Death Note: Desu nôto) - 2006 - TR - BRRip XviD | tt0758742
TheSteeL
Ölüm Defteri (Death Note: Desu nôto) - 2006 - TR - BRRip XviD | tt0758742
2
42
  • Derecelendirme: 0/5 - 0 oy
  • 1
  • 2
  • 3
  • 4
  • 5
Konuyu Okuyanlar:1 Ziyaretçi
Şuan Online!
Filmin Yayınlanma Tarihi: 2006 
Şuan Online!
TheSteeL Chief Executive Officer
******
CEO


 Ölüm Defteri



Çin hayal dünyasının eseri olan Death Note üzerinden birçok dizi ve film yapılmıştır. Death Note, bir kitaptır. Ancak sanılanın aksine bu okuyabileceğiniz değil, üzerine yazı yazılabilecek bir kitaptır. Fakat sıradan yazılar kabul edilmez. Eğer buraya bir yazı yazmak isterseniz birini öldürmek zorundasınızdır. Yani oraya öldürmek istediğiniz kişiyi hayal eder ve ismini yazarsınız. Yazdığınız isim dakikalar içerisinde ölür. Bu kitap doğru kişilerin eline geçtiğinde tüm suçluları öldürebilecek güçtedir. Fakat yanlış kişilerin eline geçtiğinde bu büyük bir sorun olabilir...

Ölüm Defteri (2006) (Death Note: Desu nôto) | tt0758742 Filmi Imdb'den 29500 kişi tarafından oylandı ve 7,7 puan aldı. Bu film için editör puanı %70 olarak belirlendi. İyi Seyirler!

Teknik Detaylar

Kod :
General
Unique ID                                : 135154302925296954109055090918553941117 (0x65ADC59C00AC983CC5A1B563DC95F47D)
Complete name                            : /home/TheSteel/Desktop/2/Olüm.Defteri.2006.BRRip.Xvid.TR.Filmbol.avi
Format                                   : Matroska
Format version                           : Version 4
File size                                : 884 MiB
Duration                                 : 2 h 6 min
Overall bit rate                         : 978 kb/s
Movie name                               : Death Note - Ölüm Defteri - 2006 | Filmbol.org
Encoded date                             : UTC 2021-06-05 16:22:35
Writing application                      : mkvmerge v31.0.0 ('Dolores In A Shoestand') 64-bit
Writing library                          : libebml v1.3.6 + libmatroska v1.4.9
FileExtension_Invalid                    : mkv mk3d mka mks

Video
ID                                       : 1
Format                                   : MPEG-4 Visual
Format profile                           : Advanced [email protected]
Format settings                          : BVOP2
Format settings, BVOP                    : 2
Format settings, QPel                    : No
Format settings, GMC                     : No warppoints
Format settings, Matrix                  : Default (H.263)
Codec ID                                 : V_MS/VFW/FOURCC / DIVX
Codec ID/Info                            : Project Mayo
Codec ID/Hint                            : DivX 4
Duration                                 : 2 h 6 min
Bit rate                                 : 849 kb/s
Width                                    : 640 pixels
Height                                   : 356 pixels
Display aspect ratio                     : 16:9
Frame rate mode                          : Constant
Frame rate                               : 23.976 (24000/1001) FPS
Color space                              : YUV
Chroma subsampling                       : 4:2:0
Bit depth                                : 8 bits
Scan type                                : Progressive
Compression mode                         : Lossy
Bits/(Pixel*Frame)                       : 0.155
Stream size                              : 768 MiB (87%)
Title                                    : Filmbol.org
Writing library                          : XviD 67
Default                                  : Yes
Forced                                   : No

Audio
ID                                       : 2
Format                                   : MPEG Audio
Format version                           : Version 1
Format profile                           : Layer 3
Codec ID                                 : A_MPEG/L3
Codec ID/Hint                            : MP3
Duration                                 : 2 h 6 min
Bit rate mode                            : Constant
Bit rate                                 : 128 kb/s
Channel(s)                               : 2 channels
Sampling rate                            : 32.0 kHz
Frame rate                               : 27.778 FPS (1152 SPF)
Compression mode                         : Lossy
Stream size                              : 115 MiB (13%)
Title                                    : Türkçe - Filmbol.org
Writing library                          : LAME3.100UUUUUUfS;n4
Default                                  : Yes
Forced                                   : No

Film Detayları


 Ölüm Defteri

 Ölüm Defteri

 Ölüm Defteri


Film Fragmanı


Film Detayları



Zip Şifresi: filmbol.org Aşağıdaki butona tıklayarak kopyalabilirsiniz.



Uptobox ile indir

1Fichier ile indir

1Fichier'den İndiremiyor musun? Tıklayın!





Filmbol Cloud

Bunun için üzgünüz ancak, bu linke sadece premium üyeler erişebilir.




WWW
Şuan Offine!
Şuan Offine!
Furkan61 Cezalı Üye
  • Konular0
  • Mesajlar329
Teşekkürler
Şuan Online!
Şuan Online!
TheSteeL Chief Executive Officer
******
CEO
(06-06-2021, Saat: 01:03)Furkan61 Adlı Kullanıcıdan Alıntı: Teşekkürler
İyi Seyirler


Hızlı Menü: