Filmbol Forum Film İndir FHD - FULL HD v Süper Polisler 2 (Super Troopers 2) - 2018 - TR+ORG - FHD - x264 | tt0859635

Premium Üyelik Al

Bildirimi Kapat
Mega linklerinin şikayet edilmemesi için global erişime kapatıp sadece yorum yapanlara açıyoruz. Bu linkleri gizleme işlemini mecburen yapıyoruz ve yorum yapmanızın siteye değil size faydası vardır. Teşekkürler yazmayı çok görüp, Random/Spam/Anlamsız mesajlar atarak forumu kirletip Mega linklerini açmaya çalışan kullanıcılara süresiz ban atacağız.


Süper Polisler 2 (Super Troopers 2) - 2018 - TR+ORG - FHD - x264 | tt0859635
BroserBros
Süper Polisler 2 (Super Troopers 2) - 2018 - TR+ORG - FHD - x264 | tt0859635
0
5
  • Derecelendirme: 0/5 - 0 oy
  • 1
  • 2
  • 3
  • 4
  • 5
Konuyu Okuyanlar:1 Ziyaretçi
Şuan Online!
Filmin Yayınlanma Tarihi: 2018 
WWW
Şuan Online!
BroserBros Kurucu Admin
*******
Admin



 Süper Polisler 2



İlk Süper Polisler filminden birkaç yıl sonra geçen hikayede, polis memurları, Fred Savage’ı ölümüne yol açan bir yolculuğa çıkardıktan sonra Spurbury Polis Departmanından kovulmuşlardır. Mac, bir gün eski patronu Kaptan O’Hagen’dan, ekibi toplamak ve Kanada’da bir balık avına çıkmak için bir telefon alır. Ekip, Kanada’ya vardığında O’Hagen’ın Vermont Valisi Jessman’la bir toplantı yapma niyetinde olduğunu anlar. Jessman’ın söylediğine göre yakın zamanda yapılan bir arazi araştırması sırasında, Kanada’daki bir arazinin aslında ABD’nin toprağı olduğu ortaya çıkar ve valinin bu bölgeyi Kanada Kraliyet Polisi’nden devralmak için bir polis departmanı kurması gerektiği söylenir. Vali bu eski polis grubuna bu görevi teklif eder ve eğer başarılı olurlarsa yine eskisi gibi gerçek polisler olacaklarına söz verir. Ama böyle bir ekibin başarılı olması resmen bir mucize gerektirir.

Süper Polisler 2 (2018) (Super Troopers 2) | tt0859635 Filmi Imdb'den 25,000 kişi tarafından oylandı ve 6,0 puan aldı. Bu film için editör puanı %68 olarak belirlendi. İyi Seyirler!

Teknik Detaylar

Kod :
General
Unique ID                                : 179194757404460973310135714529468002519 (0x86CFA7A89751382F245634CFC504B0D7)
Complete name                            : /home/BroserBros/Desktop/6/Süper.Polisler.2.2018.FHD.BluRay.x264.TR.ENG.Filmbol.mkv
Format                                   : Matroska
Format version                           : Version 4
File size                                : 4.13 GiB
Duration                                 : 1 h 40 min
Overall bit rate                         : 5 905 kb/s
Movie name                               : Süper Polisler 2 - Super Troopers 2 - 2018 | Filmbol.org
Encoded date                             : UTC 2021-06-03 15:22:58
Writing application                      : mkvmerge v53.0.0 ('Fool's Gold') 64-bit
Writing library                          : libebml v1.4.1 + libmatroska v1.6.2

Video
ID                                       : 1
Format                                   : AVC
Format/Info                              : Advanced Video Codec
Format profile                           : [email protected]
Format settings                          : CABAC / 4 Ref Frames
Format settings, CABAC                   : Yes
Format settings, Reference frames        : 4 frames
Codec ID                                 : V_MPEG4/ISO/AVC
Duration                                 : 1 h 40 min
Bit rate                                 : 5 139 kb/s
Width                                    : 1 920 pixels
Height                                   : 1 036 pixels
Display aspect ratio                     : 1.85:1
Frame rate mode                          : Constant
Frame rate                               : 23.976 FPS
Color space                              : YUV
Chroma subsampling                       : 4:2:0
Bit depth                                : 8 bits
Scan type                                : Progressive
Bits/(Pixel*Frame)                       : 0.108
Stream size                              : 3.59 GiB (87%)
Title                                    : FHD - Filmbol.org
Language                                 : English
Default                                  : Yes
Forced                                   : No
Color range                              : Limited
Color primaries                          : BT.709
Transfer characteristics                 : BT.709
Matrix coefficients                      : BT.709

Audio #1
ID                                       : 2
Format                                   : AC-3
Format/Info                              : Audio Coding 3
Commercial name                          : Dolby Digital
Codec ID                                 : A_AC3
Duration                                 : 1 h 39 min
Bit rate mode                            : Constant
Bit rate                                 : 384 kb/s
Channel(s)                               : 6 channels
Channel layout                           : L R C LFE Ls Rs
Sampling rate                            : 48.0 kHz
Frame rate                               : 31.250 FPS (1536 SPF)
Compression mode                         : Lossy
Delay relative to video                  : 957 ms
Stream size                              : 273 MiB (6%)
Title                                    : Türkçe - Filmbol.org
Language                                 : Turkish
Service kind                             : Complete Main
Default                                  : Yes
Forced                                   : No

Audio #2
ID                                       : 3
Format                                   : AC-3
Format/Info                              : Audio Coding 3
Commercial name                          : Dolby Digital
Codec ID                                 : A_AC3
Duration                                 : 1 h 39 min
Bit rate mode                            : Constant
Bit rate                                 : 384 kb/s
Channel(s)                               : 6 channels
Channel layout                           : L R C LFE Ls Rs
Sampling rate                            : 48.0 kHz
Frame rate                               : 31.250 FPS (1536 SPF)
Compression mode                         : Lossy
Delay relative to video                  : -43 ms
Stream size                              : 273 MiB (6%)
Title                                    : Orijinal Dil - Filmbol.org
Language                                 : English
Service kind                             : Complete Main
Default                                  : No
Forced                                   : No

Text #1
ID                                       : 4
Format                                   : UTF-8
Codec ID                                 : S_TEXT/UTF8
Codec ID/Info                            : UTF-8 Plain Text
Duration                                 : 1 h 28 min
Bit rate                                 : 1 b/s
Count of elements                        : 22
Stream size                              : 695 Bytes (0%)
Title                                    : Türkçe - Filmbol.org
Language                                 : Turkish
Default                                  : Yes
Forced                                   : Yes

Text #2
ID                                       : 5
Format                                   : UTF-8
Codec ID                                 : S_TEXT/UTF8
Codec ID/Info                            : UTF-8 Plain Text
Duration                                 : 1 h 37 min
Bit rate                                 : 79 b/s
Count of elements                        : 1796
Stream size                              : 56.5 KiB (0%)
Title                                    : Türkçe - Filmbol.org
Language                                 : Turkish
Default                                  : No
Forced                                   : No

Film Detayları


 Süper Polisler 2

 Süper Polisler 2

 Süper Polisler 2


Film Fragmanı


Film Detayları

Mega linki şuan da gizli. Kullanıma açmak için konuya yorum yapın ve ardından sayfayı yenileyin.

Mega


Bunun için üzgünüz ancak, bu linke sadece premium üyeler erişebilir.

Filmbol Cloud







Hızlı Menü: