Filmbol Forum Film İndir 720P v Yapay Oyun: Enigma (The Imitation Game) - 2014 - TR+ORG - 720P | tt2084970

Premium Üyelik Al

Bildirimi Kapat
Mega linklerinin şikayet edilmemesi için global erişime kapatıp sadece yorum yapanlara açıyoruz. Bu linkleri gizleme işlemini mecburen yapıyoruz ve yorum yapmanızın siteye değil size faydası vardır. Teşekkürler yazmayı çok görüp, Random/Spam/Anlamsız mesajlar atarak forumu kirletip Mega linklerini açmaya çalışan kullanıcılara süresiz ban atacağız.


Yapay Oyun: Enigma (The Imitation Game) - 2014 - TR+ORG - 720P | tt2084970
BroserBros
Yapay Oyun: Enigma (The Imitation Game) - 2014 - TR+ORG - 720P | tt2084970
5
3186
  • Derecelendirme: 0/5 - 0 oy
  • 1
  • 2
  • 3
  • 4
  • 5
Konuyu Okuyanlar:1 Ziyaretçi
Şuan Online!
Filmin Yayınlanma Tarihi: 2015 
WWW
Şuan Online!
BroserBros Kurucu Admin
*******
Admin



 Yapay Oyun: Enigma



II. Dünya Savaşı Nazi Almanyası’nın hâkimiyetinde birden çok cephede çok çetin biçimde devam etmektedir. İngiliz İstihbaratı tüm yoğun çabalarına ve yüzlerce kişiyi çalıştırmasına rağmen Almanların kullandığı Enigma şifreleme sistemini çözmeyi başaramamıştır. Almanların çok gizli bir biçimde şifrelediği bu yazışmalar, İngilizlere ve müttefiklerine çok ağır kayıplara mal olmuştur. Çözüm olarak İngiliz hükümeti Deniz Kuvvetleri Komutanlığı çatısı altında ülkenin en iyi şifre çözen beyinlerini ve kriptoloji uzmanlarını toplar. Bu isimlerden biri de farklı çalışmalarıyla tanınan ve kendi yöntemlerinden ödün vermeyen genç profesör Alan Turing’dir. Turing’in ekibe katılması dengeleri alt üst edecek ama o güne kadar hiç denememiş büyük çaplı bir girişimin de kapısını aralayacaktır.
Ünlü İngiliz matematikçi Alan Turing’i filmde Benedict Cumberbatch canlandırırken kendisine Keira Knightley, Matthew Goode, Rory Kinnear ve Allen Leech eşlik ediyor.

Yapay Oyun: Enigma (2014) (The Imitation Game) | tt2084970 Filmi Imdb'den 700,000 kişi tarafından oylandı ve 8,0 puan aldı. Bu film için editör puanı %93 olarak belirlendi. İyi Seyirler!

Teknik Detaylar

Kod :
General
Unique ID                                : 165155062212464057259642575753544659568 (0x7C3FB53E0F6369B7C9CA504CA71AF270)
Complete name                            : /home/BroserBros/Desktop/6/Yapay.Oyun.Enigma.2014.720p.BluRay.x264.TR.ENG.Filmbol.mkv
Format                                   : Matroska
Format version                           : Version 4
File size                                : 1.15 GiB
Duration                                 : 1 h 54 min
Overall bit rate                         : 1 442 kb/s
Movie name                               : Yapay Oyun: Enigma - The Imitation Game - 2014 | Filmbol.org
Encoded date                             : UTC 2021-05-14 14:14:56
Writing application                      : mkvmerge v53.0.0 ('Fool's Gold') 64-bit
Writing library                          : libebml v1.4.1 + libmatroska v1.6.2

Video
ID                                       : 1
Format                                   : AVC
Format/Info                              : Advanced Video Codec
Format profile                           : [email protected]
Format settings                          : CABAC / 4 Ref Frames
Format settings, CABAC                   : Yes
Format settings, Reference frames        : 4 frames
Codec ID                                 : V_MPEG4/ISO/AVC
Duration                                 : 1 h 54 min
Bit rate                                 : 898 kb/s
Width                                    : 1 280 pixels
Height                                   : 536 pixels
Display aspect ratio                     : 2.40:1
Frame rate mode                          : Constant
Frame rate                               : 23.976 (24000/1001) FPS
Original frame rate                      : 23.976 (23976/1000) FPS
Color space                              : YUV
Chroma subsampling                       : 4:2:0
Bit depth                                : 8 bits
Scan type                                : Progressive
Bits/(Pixel*Frame)                       : 0.055
Stream size                              : 734 MiB (62%)
Title                                    : 720P - Filmbol.org
Writing library                          : x264 core 123 r2189 35cf912
Encoding settings                        : cabac=1 / ref=4 / deblock=1:-1:-1 / analyse=0x3:0x133 / me=umh / subme=9 / psy=1 / psy_rd=1.00:0.15 / mixed_ref=1 / me_range=24 / chroma_me=1 / trellis=2 / 8x8dct=1 / cqm=0 / deadzone=21,11 / fast_pskip=0 / chroma_qp_offset=-3 / threads=48 / sliced_threads=0 / nr=0 / decimate=1 / interlaced=0 / bluray_compat=0 / constrained_intra=0 / bframes=3 / b_pyramid=2 / b_adapt=2 / b_bias=0 / direct=3 / weightb=1 / open_gop=0 / weightp=2 / keyint=250 / keyint_min=23 / scenecut=40 / intra_refresh=0 / rc_lookahead=60 / rc=2pass / mbtree=1 / bitrate=898 / ratetol=1.0 / qcomp=0.60 / qpmin=0 / qpmax=69 / qpstep=4 / cplxblur=20.0 / qblur=0.5 / vbv_maxrate=31250 / vbv_bufsize=31250 / nal_hrd=none / ip_ratio=1.40 / aq=1:1.00
Default                                  : Yes
Forced                                   : No
Color range                              : Limited
Color primaries                          : BT.709
Matrix coefficients                      : BT.709

Audio #1
ID                                       : 2
Format                                   : AC-3
Format/Info                              : Audio Coding 3
Commercial name                          : Dolby Digital
Codec ID                                 : A_AC3
Duration                                 : 1 h 54 min
Bit rate mode                            : Constant
Bit rate                                 : 448 kb/s
Channel(s)                               : 6 channels
Channel layout                           : L R C LFE Ls Rs
Sampling rate                            : 48.0 kHz
Frame rate                               : 31.250 FPS (1536 SPF)
Compression mode                         : Lossy
Delay relative to video                  : -83 ms
Stream size                              : 366 MiB (31%)
Title                                    : Türkçe - Filmbol.org
Language                                 : Turkish
Service kind                             : Complete Main
Default                                  : Yes
Forced                                   : No

Audio #2
ID                                       : 3
Format                                   : AAC LC
Format/Info                              : Advanced Audio Codec Low Complexity
Codec ID                                 : A_AAC-2
Duration                                 : 1 h 54 min
Bit rate                                 : 93.8 kb/s
Channel(s)                               : 2 channels
Channel layout                           : L R
Sampling rate                            : 48.0 kHz
Frame rate                               : 46.875 FPS (1024 SPF)
Compression mode                         : Lossy
Delay relative to video                  : -83 ms
Stream size                              : 76.6 MiB (6%)
Title                                    : Orijinal Dil - Filmbol.org
Language                                 : English
Default                                  : No
Forced                                   : No

Text
ID                                       : 4
Format                                   : UTF-8
Codec ID                                 : S_TEXT/UTF8
Codec ID/Info                            : UTF-8 Plain Text
Duration                                 : 1 h 49 min
Bit rate                                 : 72 b/s
Count of elements                        : 1139
Stream size                              : 58.0 KiB (0%)
Title                                    : Türkçe - Filmbol.org
Language                                 : Turkish
Default                                  : No
Forced                                   : No

Film Detayları


 Yapay Oyun: Enigma

 Yapay Oyun: Enigma

 Yapay Oyun: Enigma


Film Fragmanı


Film Detayları

Uptobox ile indir

1Fichier ile indir

1Fichier'den İndiremiyor musun? Tıklayın!


Mega linki şuan da gizli. Kullanıma açmak için konuya yorum yapın ve ardından sayfayı yenileyin.

Mega


Bunun için üzgünüz ancak, bu linke sadece premium üyeler erişebilir.

Filmbol Cloud





Şuan Offine!
Şuan Offine!
rakibim007 Yeni Üye
*
Üye

  • Konular0
  • Mesajlar4
  • Rep puanı 0
paylaşım için teşekkürler
edit: cloud.ru linki ölmüş bilginize Smile
Şuan Offine!
Şuan Offine!
efegoztepe Yeni Üye
*
Üye

  • Konular0
  • Mesajlar2
  • Rep puanı 0
Bakacaz
Şuan Online!
Şuan Online!
algül Süper Üye
***
Super Üye

  • Konular0
  • Mesajlar48
  • Rep puanı 0
çok sağol....
Şuan Offine!
Şuan Offine!
erdalmeryem Uzman Üye
**
Uzman Üye

  • Konular0
  • Mesajlar7
  • Rep puanı 0
güzel
Şuan Online!
Şuan Online!
BroserBros Kurucu Admin
*******
Admin

15.05.2021 Yönetici Notu:

Kırık linkler kontrol edildi, kaldırıldı ve yenilendi. Tüm linkler tamamen çalışır durumda.


Hızlı Menü: