Filmbol Forum Film İndir FHD - FULL HD v Jack Reacher: Asla Geri Dönme (Jack Reacher: Never Go Back) - 2016 - TR+ORG - FHD - x264 | tt3393786

Premium Üyelik Al

Bildirimi Kapat
Mega linklerinin şikayet edilmemesi için global erişime kapatıp sadece yorum yapanlara açıyoruz. Bu linkleri gizleme işlemini mecburen yapıyoruz ve yorum yapmanızın siteye değil size faydası vardır. Teşekkürler yazmayı çok görüp, Random/Spam/Anlamsız mesajlar atarak forumu kirletip Mega linklerini açmaya çalışan kullanıcılara süresiz ban atacağız.


Jack Reacher: Asla Geri Dönme (Jack Reacher: Never Go Back) - 2016 - TR+ORG - FHD - x264 | tt3393786
BroserBros
Jack Reacher: Asla Geri Dönme (Jack Reacher: Never Go Back) - 2016 - TR+ORG - FHD - x264 | tt3393786
0
50
  • Derecelendirme: 0/5 - 0 oy
  • 1
  • 2
  • 3
  • 4
  • 5
Konuyu Okuyanlar:1 Ziyaretçi
Şuan Online!
Filmin Yayınlanma Tarihi: 2016 
WWW
Şuan Online!
BroserBros Kurucu Admin
*******
Admin



 Jack Reacher: Asla Geri Dönme



İlk filmin 4 yıl sonrasındaki olayları konu alacak olan devam halkası, eski ordu üssüne geri dönen Jack Reacher’ı konu alacak. Reacher binbaşının isteği üzerine eski üssüne geri gelir. Ancak Reacher geri döndüğünde eski binbaşının vatan hainliğiyle suçlandığını öğrenir. Reacher binbaşı Susan Turner’a kurulan komployu ortaya çıkarmak için cinayetin gerçek suçlularının suçluların peşine düşer. Binbaşının adını temizlemek için büyük bir hükümet komplosu arkasındaki gerçeği açığa çıkarmak zorunda kalacak olan Reacher kanundan kaçar durumdayken hayatını sonsuza dek değiştirecek olan büyük bir sırrı da açığa çıkartmaya çalışır…
Lee Child’ın Never Go Back kitabından uyarlanacak Jack Reacher: Never Go Back’in başrolünde yine Tom Cruise’u izleyeceğiz. Filmin başrolünde ünlü aksiyon oyuncusuna Cobie Smulders eşlik ederken, filmin kadrosunda Robert Knepper, Aldis Hodge, Sue-Lynn Ansari, Danika Yarosh, Holt McCallany ve Julia Holt da yer alıyor.

Jack Reacher: Asla Geri Dönme (2016) (Jack Reacher: Never Go Back) | tt3393786 Filmi Imdb'den 150,000 kişi tarafından oylandı ve 6,4 puan aldı. Bu film için editör puanı %79 olarak belirlendi. İyi Seyirler!

Teknik Detaylar

Kod :
General
Unique ID                                : 174159366069699599098492291480298282458 (0x8305DFB2BA35192B0B466D7ED8C95DDA)
Complete name                            : /home/BroserBros/Desktop/4/Jack.Reacher.Asla.Geri.Dönme.2016.FHD.BluRay.x264.TR.ENG.Filmbol.mkv
Format                                   : Matroska
Format version                           : Version 4
File size                                : 3.45 GiB
Duration                                 : 1 h 58 min
Overall bit rate                         : 4 167 kb/s
Movie name                               : Jack Reacher: Asla Geri Dönme - Jack Reacher: Never Go Back - 2016 | Filmbol.org
Encoded date                             : UTC 2021-04-19 15:29:39
Writing application                      : mkvmerge v53.0.0 ('Fool's Gold') 64-bit
Writing library                          : libebml v1.4.1 + libmatroska v1.6.2

Video
ID                                       : 1
Format                                   : AVC
Format/Info                              : Advanced Video Codec
Format profile                           : [email protected]
Format settings                          : CABAC / 5 Ref Frames
Format settings, CABAC                   : Yes
Format settings, Reference frames        : 5 frames
Codec ID                                 : V_MPEG4/ISO/AVC
Duration                                 : 1 h 58 min
Bit rate                                 : 3 550 kb/s
Width                                    : 1 916 pixels
Height                                   : 800 pixels
Display aspect ratio                     : 2.40:1
Frame rate mode                          : Constant
Frame rate                               : 23.976 (24000/1001) FPS
Color space                              : YUV
Chroma subsampling                       : 4:2:0
Bit depth                                : 8 bits
Scan type                                : Progressive
Bits/(Pixel*Frame)                       : 0.097
Stream size                              : 2.94 GiB (85%)
Title                                    : FHD - Filmbol.org
Writing library                          : x264 core 148 r2638 7599210
Encoding settings                        : cabac=1 / ref=5 / deblock=1:-1:-1 / analyse=0x3:0x133 / me=umh / subme=7 / psy=1 / psy_rd=1.00:0.00 / mixed_ref=1 / me_range=30 / chroma_me=1 / trellis=1 / 8x8dct=1 / cqm=2 / deadzone=21,11 / fast_pskip=0 / chroma_qp_offset=-2 / threads=12 / lookahead_threads=3 / sliced_threads=0 / slices=4 / nr=0 / decimate=1 / interlaced=0 / bluray_compat=0 / constrained_intra=0 / bframes=5 / b_pyramid=2 / b_adapt=2 / b_bias=0 / direct=3 / weightb=1 / open_gop=0 / weightp=2 / keyint=240 / keyint_min=23 / scenecut=40 / intra_refresh=0 / rc_lookahead=50 / rc=2pass / mbtree=1 / bitrate=3550 / ratetol=1.0 / qcomp=0.60 / qpmin=1 / qpmax=69 / qpstep=4 / cplxblur=20.0 / qblur=0.5 / vbv_maxrate=62500 / vbv_bufsize=78125 / nal_hrd=none / filler=0 / ip_ratio=1.40 / aq=1:1.00
Language                                 : English
Default                                  : Yes
Forced                                   : No

Audio #1
ID                                       : 2
Format                                   : AC-3
Format/Info                              : Audio Coding 3
Commercial name                          : Dolby Digital
Codec ID                                 : A_AC3
Duration                                 : 1 h 58 min
Bit rate mode                            : Constant
Bit rate                                 : 224 kb/s
Channel(s)                               : 2 channels
Channel layout                           : L R
Sampling rate                            : 48.0 kHz
Frame rate                               : 31.250 FPS (1536 SPF)
Compression mode                         : Lossy
Stream size                              : 189 MiB (5%)
Title                                    : Türkçe - Filmbol.org
Language                                 : Turkish
Service kind                             : Complete Main
Default                                  : Yes
Forced                                   : No

Audio #2
ID                                       : 3
Format                                   : AC-3
Format/Info                              : Audio Coding 3
Commercial name                          : Dolby Digital
Codec ID                                 : A_AC3
Duration                                 : 1 h 58 min
Bit rate mode                            : Constant
Bit rate                                 : 384 kb/s
Channel(s)                               : 6 channels
Channel layout                           : L R C LFE Ls Rs
Sampling rate                            : 48.0 kHz
Frame rate                               : 31.250 FPS (1536 SPF)
Compression mode                         : Lossy
Stream size                              : 324 MiB (9%)
Title                                    : Orjinal Dil - Filmbol.org
Language                                 : English
Service kind                             : Complete Main
Default                                  : No
Forced                                   : No

Text #1
ID                                       : 4
Format                                   : PGS
Muxing mode                              : zlib
Codec ID                                 : S_HDMV/PGS
Codec ID/Info                            : Picture based subtitle format used on BDs/HD-DVDs
Duration                                 : 1 h 57 min
Bit rate                                 : 30.2 kb/s
Count of elements                        : 2550
Stream size                              : 25.3 MiB (1%)
Title                                    : Türkçe - Filmbol.org
Language                                 : Turkish
Default                                  : No
Forced                                   : No

Text #2
ID                                       : 5
Format                                   : UTF-8
Codec ID                                 : S_TEXT/UTF8
Codec ID/Info                            : UTF-8 Plain Text
Duration                                 : 1 h 51 min
Bit rate                                 : 51 b/s
Count of elements                        : 1431
Stream size                              : 42.0 KiB (0%)
Title                                    : Orjinal Dil - Filmbol.org
Language                                 : English
Default                                  : No
Forced                                   : No

Film Detayları


 Jack Reacher: Asla Geri Dönme

 Jack Reacher: Asla Geri Dönme

 Jack Reacher: Asla Geri Dönme


Film Fragmanı


Film Detayları

Bunun için üzgünüz ancak, bu linke sadece premium üyeler erişebilir.

Filmbol Cloud







Hızlı Menü: