Filmbol Forum Film İndir BRRip XviD v Titanik (Titanic) - 1997 - TR - BRRip XviD | tt0120338

Premium Üyelik Al

Bildirimi Kapat
Mega linklerinin şikayet edilmemesi için global erişime kapatıp sadece yorum yapanlara açıyoruz. Bu linkleri gizleme işlemini mecburen yapıyoruz ve yorum yapmanızın siteye değil size faydası vardır. Teşekkürler yazmayı çok görüp, Random/Spam/Anlamsız mesajlar atarak forumu kirletip Mega linklerini açmaya çalışan kullanıcılara süresiz ban atacağız.


Titanik (Titanic) - 1997 - TR - BRRip XviD | tt0120338
TheSteeL
Titanik (Titanic) - 1997 - TR - BRRip XviD | tt0120338
0
69
  • Derecelendirme: 0/5 - 0 oy
  • 1
  • 2
  • 3
  • 4
  • 5
Konuyu Okuyanlar:1 Ziyaretçi
Şuan Online!
Filmin Yayınlanma Tarihi: 1997 
WWW
Şuan Online!
TheSteeL Süper Moderatör
*****
Süper Moderatör



 Titanik



Gerçek bir hikâyeden alıntılanan Titanik filmi 1912'de derin okyanus sularına gömülen Titanik gemisinin hikâyesini konu ediniyor. Yapımcılarının bu gemiyi "tanrı bile" batıramaz dediği Titanik, çıktığı ilk yolculukta dev buz kütlesine çarparak hızla su almaya başlamış ve gemi okyanusa gömülmüştür. Titanik filmi bu olayın derinlerinde inse de aynı zamanda gemide yaşanan romantik anları da çerçevesine alıyor ve başarılı oyunculuk performansları ile mükemmel bir iş çıkarıyor...

Titanik (1997) (Titanic) | tt0120338 Filmi Imdb'den 1,060,000 kişi tarafından oylandı ve 7,8 puan aldı. Bu film için editör puanı %94 olarak belirlendi. İyi Seyirler!

Teknik Detaylar

Kod :
General
Unique ID                                : 221267059167971532783133958225158615258 (0xA6767C497411B5E62C93E3432BAE30DA)
Complete name                            : /home/TheSteel/Desktop/2/Titanik.1997.BRRip.XViD.TR.Filmbol.avi
Format                                   : Matroska
Format version                           : Version 4
File size                                : 2.17 GiB
Duration                                 : 3 h 14 min
Overall bit rate                         : 1 594 kb/s
Movie name                               : Titanic - Titanik - 1997 | Filmbol.org
Encoded date                             : UTC 2021-04-17 15:42:13
Writing application                      : mkvmerge v31.0.0 ('Dolores In A Shoestand') 64-bit
Writing library                          : libebml v1.3.6 + libmatroska v1.4.9
FileExtension_Invalid                    : mkv mk3d mka mks

Video
ID                                       : 1
Format                                   : MPEG-4 Visual
Format profile                           : Advanced [email protected]
Format settings                          : BVOP2 / Custom Matrix
Format settings, BVOP                    : 2
Format settings, QPel                    : No
Format settings, GMC                     : No warppoints
Format settings, Matrix                  : Custom
Muxing mode                              : Packed bitstream
Codec ID                                 : V_MS/VFW/FOURCC / XVID
Codec ID/Hint                            : XviD
Duration                                 : 3 h 14 min
Bit rate                                 : 1 464 kb/s
Width                                    : 672 pixels
Height                                   : 288 pixels
Display aspect ratio                     : 2.35:1
Frame rate mode                          : Constant
Frame rate                               : 23.976 (24000/1001) FPS
Color space                              : YUV
Chroma subsampling                       : 4:2:0
Bit depth                                : 8 bits
Scan type                                : Progressive
Compression mode                         : Lossy
Bits/(Pixel*Frame)                       : 0.316
Stream size                              : 1.99 GiB (92%)
Title                                    : Titanic - Titanik - 1997 | Filmbol.org
Writing library                          : XviD 1.1.2 (UTC 2006-11-01)
Default                                  : Yes
Forced                                   : No

Audio
ID                                       : 2
Format                                   : MPEG Audio
Format version                           : Version 1
Format profile                           : Layer 3
Format settings                          : Joint stereo / MS Stereo
Codec ID                                 : A_MPEG/L3
Codec ID/Hint                            : MP3
Duration                                 : 3 h 14 min
Bit rate mode                            : Constant
Bit rate                                 : 128 kb/s
Channel(s)                               : 2 channels
Sampling rate                            : 48.0 kHz
Frame rate                               : 41.667 FPS (1152 SPF)
Compression mode                         : Lossy
Delay relative to video                  : 1 s 176 ms
Stream size                              : 178 MiB (8%)
Title                                    : Titanic - Titanik - 1997 | Filmbol.org
Default                                  : Yes
Forced                                   : No

Film Detayları


 Titanik

 Titanik

 Titanik


Film Fragmanı


Film Detayları


Uptobox ile indir

1Fichier ile indir

1Fichier'den İndiremiyor musun? Tıklayın!


Mega linki şuan da gizli. Kullanıma açmak için konuya yorum yapın ve ardından sayfayı yenileyin.

Mega


Bunun için üzgünüz ancak, bu linke sadece premium üyeler erişebilir.

Filmbol Cloud







Hızlı Menü: