Filmbol Forum Film İndir FHD - FULL HD v Fantastik Canavarlar: Grindelwald'in Suçları (Fantastic Beasts: The Crimes of Grindelwald) - 2018 - TR+ORG - FHD - x264 | tt4123430

Premium Üyelik Al

Bildirimi Kapat
Mega linklerinin şikayet edilmemesi için global erişime kapatıp sadece yorum yapanlara açıyoruz. Bu linkleri gizleme işlemini mecburen yapıyoruz ve yorum yapmanızın siteye değil size faydası vardır. Teşekkürler yazmayı çok görüp, Random/Spam/Anlamsız mesajlar atarak forumu kirletip Mega linklerini açmaya çalışan kullanıcılara süresiz ban atacağız.


Fantastik Canavarlar: Grindelwald'in Suçları (Fantastic Beasts: The Crimes of Grindelwald) - 2018 - TR+ORG - FHD - x264 | tt4123430
BroserBros
Fantastik Canavarlar: Grindelwald'in Suçları (Fantastic Beasts: The Crimes of Grindelwald) - 2018 - TR+ORG - FHD - x264 | tt4123430
0
45
  • Derecelendirme: 0/5 - 0 oy
  • 1
  • 2
  • 3
  • 4
  • 5
Konuyu Okuyanlar:1 Ziyaretçi
Şuan Online!
Filmin Yayınlanma Tarihi: 2018 
WWW
Şuan Online!
BroserBros Kurucu Admin
*******
Admin



 Fantastik Canavarlar: Grindelwald'in Suçları



Gellert Grindelwald, Amerika Birleşik Devletleri sihir kongresi tarafından yakalanmış ve hapse tıkılmıştı, ancak Grindelwald hapisten kaçar ve dünyaya korku salmaya, tüm hayvanları kendisine bağlamaya ve dünyaya hükmetmeye kalkışınca, karşısına Newt Scamander ve onun değerli dostları çıkacaktır.

Fantastik Canavarlar: Grindelwald'in Suçları (2018) (Fantastic Beasts: The Crimes of Grindelwald) | tt4123430 Filmi Imdb'den 230,000 kişi tarafından oylandı ve 6,6 puan aldı. Bu film için editör puanı %78 olarak belirlendi. İyi Seyirler!

Teknik Detaylar

Kod :
General
Unique ID                                : 244216551063604353218963370656794112710 (0xB7BA6598ABFC02DF66F255DB530772C6)
Complete name                            : /home/BroserBros/Desktop/1/Fantastik.Canavarlar.Grindelwaldın.Suçları.2018.FHD.BluRay.x264.TR.ENG.Filmbol.mkv
Format                                   : Matroska
Format version                           : Version 4
File size                                : 4.43 GiB
Duration                                 : 2 h 13 min
Overall bit rate                         : 4 749 kb/s
Movie name                               : Fantastik Canavarlar: Grindelwald'ın Suçları - Fantastic Beasts: The Crimes of Grindelwald - 2018 | Filmbol.org
Encoded date                             : UTC 2021-04-15 15:24:39
Writing application                      : mkvmerge v53.0.0 ('Fool's Gold') 64-bit
Writing library                          : libebml v1.4.1 + libmatroska v1.6.2

Video
ID                                       : 1
Format                                   : AVC
Format/Info                              : Advanced Video Codec
Format profile                           : [email protected]
Format settings                          : CABAC / 4 Ref Frames
Format settings, CABAC                   : Yes
Format settings, Reference frames        : 4 frames
Codec ID                                 : V_MPEG4/ISO/AVC
Duration                                 : 2 h 13 min
Bit rate                                 : 3 983 kb/s
Width                                    : 1 920 pixels
Height                                   : 800 pixels
Display aspect ratio                     : 2.40:1
Frame rate mode                          : Constant
Frame rate                               : 29.970 (30000/1001) FPS
Color space                              : YUV
Chroma subsampling                       : 4:2:0
Bit depth                                : 8 bits
Scan type                                : Progressive
Bits/(Pixel*Frame)                       : 0.087
Stream size                              : 3.72 GiB (84%)
Title                                    : FHD - Filmbol.org
Writing library                          : x264 core 142 r2479 dd79a61
Encoding settings                        : cabac=1 / ref=3 / deblock=1:0:0 / analyse=0x3:0x113 / me=hex / subme=7 / psy=1 / psy_rd=1.00:0.00 / mixed_ref=1 / me_range=16 / chroma_me=1 / trellis=1 / 8x8dct=1 / cqm=0 / deadzone=21,11 / fast_pskip=1 / chroma_qp_offset=-2 / threads=18 / lookahead_threads=3 / sliced_threads=0 / nr=0 / decimate=1 / interlaced=0 / bluray_compat=0 / constrained_intra=0 / bframes=3 / b_pyramid=2 / b_adapt=1 / b_bias=0 / direct=1 / weightb=1 / open_gop=0 / weightp=2 / keyint=300 / keyint_min=30 / scenecut=40 / intra_refresh=0 / rc_lookahead=40 / rc=2pass / mbtree=1 / bitrate=3983 / ratetol=1.0 / qcomp=0.60 / qpmin=0 / qpmax=69 / qpstep=4 / cplxblur=20.0 / qblur=0.5 / vbv_maxrate=62500 / vbv_bufsize=78125 / nal_hrd=none / filler=0 / ip_ratio=1.40 / aq=1:1.00
Default                                  : Yes
Forced                                   : No
Color range                              : Limited
Color primaries                          : BT.709
Transfer characteristics                 : BT.709
Matrix coefficients                      : BT.709

Audio #1
ID                                       : 2
Format                                   : AC-3
Format/Info                              : Audio Coding 3
Commercial name                          : Dolby Digital
Codec ID                                 : A_AC3
Duration                                 : 2 h 13 min
Bit rate mode                            : Constant
Bit rate                                 : 384 kb/s
Channel(s)                               : 6 channels
Channel layout                           : L R C LFE Ls Rs
Sampling rate                            : 48.0 kHz
Frame rate                               : 31.250 FPS (1536 SPF)
Compression mode                         : Lossy
Delay relative to video                  : -43 ms
Stream size                              : 367 MiB (8%)
Title                                    : Türkçe - Filmbol.org
Language                                 : Turkish
Service kind                             : Complete Main
Default                                  : Yes
Forced                                   : No

Audio #2
ID                                       : 3
Format                                   : AC-3
Format/Info                              : Audio Coding 3
Commercial name                          : Dolby Digital
Codec ID                                 : A_AC3
Duration                                 : 2 h 13 min
Bit rate mode                            : Constant
Bit rate                                 : 384 kb/s
Channel(s)                               : 6 channels
Channel layout                           : L R C LFE Ls Rs
Sampling rate                            : 48.0 kHz
Frame rate                               : 31.250 FPS (1536 SPF)
Compression mode                         : Lossy
Delay relative to video                  : 88 ms
Stream size                              : 367 MiB (8%)
Title                                    : Orjinal Dil - Filmbol.org
Language                                 : English
Service kind                             : Complete Main
Default                                  : No
Forced                                   : No

Text #1
ID                                       : 4
Format                                   : UTF-8
Codec ID                                 : S_TEXT/UTF8
Codec ID/Info                            : UTF-8 Plain Text
Duration                                 : 2 h 4 min
Bit rate                                 : 37 b/s
Count of elements                        : 1056
Stream size                              : 34.2 KiB (0%)
Title                                    : Türkçe - Filmbol.org
Language                                 : Turkish
Default                                  : No
Forced                                   : No

Text #2
ID                                       : 5
Format                                   : UTF-8
Codec ID                                 : S_TEXT/UTF8
Codec ID/Info                            : UTF-8 Plain Text
Duration                                 : 2 h 3 min
Bit rate                                 : 41 b/s
Count of elements                        : 1265
Stream size                              : 37.1 KiB (0%)
Title                                    : Orjinal Dil - Filmbol.org
Language                                 : English
Default                                  : No
Forced                                   : No

Text #3
ID                                       : 6
Format                                   : UTF-8
Codec ID                                 : S_TEXT/UTF8
Codec ID/Info                            : UTF-8 Plain Text
Duration                                 : 2 h 12 min
Bit rate                                 : 43 b/s
Count of elements                        : 1505
Stream size                              : 42.3 KiB (0%)
Title                                    : Orjinal Dil - Filmbol.org
Language                                 : English
Default                                  : No
Forced                                   : No

Film Detayları


 Fantastik Canavarlar: Grindelwald'in Suçları

 Fantastik Canavarlar: Grindelwald'in Suçları

 Fantastik Canavarlar: Grindelwald'in Suçları


Film Fragmanı


Film Detayları

Bunun için üzgünüz ancak, bu linke sadece premium üyeler erişebilir.

Filmbol Cloud







Hızlı Menü: