Filmbol Forum Film İndir FHD - FULL HD v X-Men: Geçmiş Günler Gelecek (X-Men: Days of Future Past) - 2014 - TR+ORG - FHD - x264 | tt1877832

Premium Üyelik Al

Bildirimi Kapat
Mega linklerinin şikayet edilmemesi için global erişime kapatıp sadece yorum yapanlara açıyoruz. Bu linkleri gizleme işlemini mecburen yapıyoruz ve yorum yapmanızın siteye değil size faydası vardır. Teşekkürler yazmayı çok görüp, Random/Spam/Anlamsız mesajlar atarak forumu kirletip Mega linklerini açmaya çalışan kullanıcılara süresiz ban atacağız.


X-Men: Geçmiş Günler Gelecek (X-Men: Days of Future Past) - 2014 - TR+ORG - FHD - x264 | tt1877832
BroserBros
X-Men: Geçmiş Günler Gelecek (X-Men: Days of Future Past) - 2014 - TR+ORG - FHD - x264 | tt1877832
0
51
  • Derecelendirme: 0/5 - 0 oy
  • 1
  • 2
  • 3
  • 4
  • 5
Konuyu Okuyanlar:1 Ziyaretçi
Şuan Online!
Filmin Yayınlanma Tarihi: 2014 
WWW
Şuan Online!
BroserBros Kurucu Admin
*******
Admin



 X-Men: Geçmiş Günler Gelecek



Mutantlar soylarının tükenmemesi için zamanda yolculuk yapmak zorundadır zira gelecekte kamplara hapsedilmiş durumdadırlar. Sentinel’ler tarafından avlanıp öldürüldükleri için de nesilleri tükenmenin eşiğine gelmiştir. Mutantların soyunu kurtarabilmek için iki ezeli düşman Magneto ve Charles Xavier güçlerini birleştirirler. Planları Sentinel’lerin yarattığı vahşeti durdurmak üzerine kuruludur. Wolverine (Hugh Jackman), kendi kendini iyileştirebildiği için zamanda yolculuğun onda yol açabileceği yan etkiler yok olacaktır. Bu yüzden Wolverine’i Kitty Pryde’ın da yardımıyla geçmişe gönderirler. Trask Industries’in deneyler sonucu ürettiği Sentinel’lerin yapım aşamasına engel olacaklardır. Acaba bu konuda başarılı olabilecekler midir?

X-Men: Geçmiş Günler Gelecek (2014) (X-Men: Days of Future Past) | tt1877832 Filmi Imdb'den 670,000 kişi tarafından oylandı ve 7,9 puan aldı. Bu film için editör puanı %90 olarak belirlendi. İyi Seyirler!

Teknik Detaylar

Kod :
General
Unique ID                                : 21275488565008299009368499209320129129 (0x10018292B1D08022E6015AF10EEDE269)
Complete name                            : /home/BroserBros/Desktop/8/X.Men.Geçmiş.Günler.Gelecek.2014.FHD.BluRay.x264.TR.ENG.Filmbol.mkv
Format                                   : Matroska
Format version                           : Version 4
File size                                : 6.74 GiB
Duration                                 : 2 h 28 min
Overall bit rate                         : 6 490 kb/s
Movie name                               : X-Men: Geçmiş Günler Gelecek - X-Men Days of Future Past - 2014 | Filmbol.org
Encoded date                             : UTC 2021-04-11 15:33:39
Writing application                      : mkvmerge v53.0.0 ('Fool's Gold') 64-bit
Writing library                          : libebml v1.4.1 + libmatroska v1.6.2

Video
ID                                       : 1
Format                                   : AVC
Format/Info                              : Advanced Video Codec
Format profile                           : [email protected]
Format settings                          : CABAC / 5 Ref Frames
Format settings, CABAC                   : Yes
Format settings, Reference frames        : 5 frames
Codec ID                                 : V_MPEG4/ISO/AVC
Duration                                 : 2 h 28 min
Bit rate                                 : 5 656 kb/s
Width                                    : 1 920 pixels
Height                                   : 800 pixels
Display aspect ratio                     : 2.40:1
Frame rate mode                          : Constant
Frame rate                               : 23.976 (24000/1001) FPS
Color space                              : YUV
Chroma subsampling                       : 4:2:0
Bit depth                                : 8 bits
Scan type                                : Progressive
Bits/(Pixel*Frame)                       : 0.154
Stream size                              : 5.88 GiB (87%)
Title                                    : FHD - Filmbol.org
Writing library                          : x264 core 157 r2969 d4099dd
Encoding settings                        : cabac=1 / ref=5 / deblock=1:-3:-3 / analyse=0x3:0x113 / me=umh / subme=9 / psy=1 / psy_rd=1.00:0.15 / mixed_ref=1 / me_range=18 / chroma_me=1 / trellis=2 / 8x8dct=1 / cqm=0 / deadzone=21,11 / fast_pskip=0 / chroma_qp_offset=-1 / threads=6 / lookahead_threads=1 / sliced_threads=0 / nr=0 / decimate=0 / interlaced=0 / bluray_compat=0 / constrained_intra=0 / bframes=3 / b_pyramid=2 / b_adapt=2 / b_bias=0 / direct=3 / weightb=1 / open_gop=0 / weightp=2 / keyint=240 / keyint_min=23 / scenecut=40 / intra_refresh=0 / rc_lookahead=40 / rc=2pass / mbtree=1 / bitrate=5656 / ratetol=1.0 / qcomp=0.60 / qpmin=0 / qpmax=69 / qpstep=4 / cplxblur=20.0 / qblur=0.5 / vbv_maxrate=50000 / vbv_bufsize=50000 / nal_hrd=none / filler=0 / ip_ratio=1.30 / aq=1:1.00
Language                                 : English
Default                                  : Yes
Forced                                   : No

Audio #1
ID                                       : 2
Format                                   : AC-3
Format/Info                              : Audio Coding 3
Commercial name                          : Dolby Digital
Codec ID                                 : A_AC3
Duration                                 : 2 h 28 min
Bit rate mode                            : Constant
Bit rate                                 : 192 kb/s
Channel(s)                               : 2 channels
Channel layout                           : L R
Sampling rate                            : 48.0 kHz
Frame rate                               : 31.250 FPS (1536 SPF)
Compression mode                         : Lossy
Stream size                              : 204 MiB (3%)
Title                                    : Türkçe - Filmbol.org
Language                                 : Turkish
Service kind                             : Complete Main
Default                                  : Yes
Forced                                   : No

Audio #2
ID                                       : 3
Format                                   : AC-3
Format/Info                              : Audio Coding 3
Commercial name                          : Dolby Digital
Codec ID                                 : A_AC3
Duration                                 : 2 h 28 min
Bit rate mode                            : Constant
Bit rate                                 : 640 kb/s
Channel(s)                               : 6 channels
Channel layout                           : L R C LFE Ls Rs
Sampling rate                            : 48.0 kHz
Frame rate                               : 31.250 FPS (1536 SPF)
Compression mode                         : Lossy
Stream size                              : 681 MiB (10%)
Title                                    : Orjinal Dil - Filmbol.org
Language                                 : English
Service kind                             : Complete Main
Default                                  : No
Forced                                   : No

Text #1
ID                                       : 4
Format                                   : UTF-8
Codec ID                                 : S_TEXT/UTF8
Codec ID/Info                            : UTF-8 Plain Text
Duration                                 : 2 h 16 min
Bit rate                                 : 7 b/s
Count of elements                        : 214
Stream size                              : 7.48 KiB (0%)
Title                                    : Türkçe FORCED - Filmbol.org
Language                                 : Turkish
Default                                  : Yes
Forced                                   : No

Text #2
ID                                       : 5
Format                                   : UTF-8
Codec ID                                 : S_TEXT/UTF8
Codec ID/Info                            : UTF-8 Plain Text
Duration                                 : 2 h 18 min
Bit rate                                 : 49 b/s
Count of elements                        : 1284
Stream size                              : 49.7 KiB (0%)
Title                                    : Türkçe - Filmbol.org
Language                                 : Turkish
Default                                  : No
Forced                                   : No

Film Detayları


 X-Men: Geçmiş Günler Gelecek

 X-Men: Geçmiş Günler Gelecek

 X-Men: Geçmiş Günler Gelecek


Film Fragmanı


Film Detayları

Bunun için üzgünüz ancak, bu linke sadece premium üyeler erişebilir.

Filmbol Cloud







Hızlı Menü: