Filmbol Forum Film İndir BRRip XviD v Sen Hiç Ateşböceği Gördün mü? (Sen Hiç Atesböcegi Gördün mü?) - 2021 - TR - BRRip XviD | tt13317694

Premium Üyelik Al

Bildirimi Kapat
Mega linklerinin şikayet edilmemesi için global erişime kapatıp sadece yorum yapanlara açıyoruz. Bu linkleri gizleme işlemini mecburen yapıyoruz ve yorum yapmanızın siteye değil size faydası vardır. Teşekkürler yazmayı çok görüp, Random/Spam/Anlamsız mesajlar atarak forumu kirletip Mega linklerini açmaya çalışan kullanıcılara süresiz ban atacağız.


Sen Hiç Ateşböceği Gördün mü? (Sen Hiç Atesböcegi Gördün mü?) - 2021 - TR - BRRip XviD | tt13317694
TheSteeL
Sen Hiç Ateşböceği Gördün mü? (Sen Hiç Atesböcegi Gördün mü?) - 2021 - TR - BRRip XviD | tt13317694
4
205
  • Derecelendirme: 0/5 - 0 oy
  • 1
  • 2
  • 3
  • 4
  • 5
Konuyu Okuyanlar:1 Ziyaretçi
Şuan Online!
Filmin Yayınlanma Tarihi: 2021 
WWW
Şuan Online!
TheSteeL Süper Moderatör
*****
Süper Moderatör



 Sen Hiç Ateşböceği Gördün mü?



Yılmaz Erdoğan'ı parlatan ve kariyerine en büyük katkıyı yapan "Sen Hiç Ateş Böceği Gördün Mü?" Adlı tiyatro eseri 1999 yılında gösterime girmiş bir tiyatro oyunudur. Türkiye'de mizah anlayışına yeni bir bakış açısı getirmiş olan oyun çok ilgi görmüştü. Aradan geçen 22 yılın ardından yapımcılığı Netflix tarafından üstlenilen filmde üstün zekalı bir kızın ortama ayak uydurmaya çalışması trajikomik bir şekilde anlatılarak mizahta 1999 yılında yeni bir tür yaratıyor ve bu yapıt günümüze uzanıyor...

Sen Hiç Ateşböceği Gördün mü? (2021) (Sen Hiç Atesböcegi Gördün mü?) | tt13317694 Filmi Imdb'den 700 kişi tarafından oylandı ve 6,4 puan aldı. Bu film için editör puanı %66 olarak belirlendi. İyi Seyirler!

Teknik Detaylar

Kod :
General
Unique ID                                : 68981572139113902852075966840786178120 (0x33E55E170F471B124C520376F954D048)
Complete name                            : /home/TheSteel/Desktop/1/Sen.Hiç.Ateş.Böceği.Gördün.mü.2021.HDRip.XViD.TR.Filmbol.avi
Format                                   : Matroska
Format version                           : Version 4
File size                                : 1 012 MiB
Duration                                 : 1 h 54 min
Overall bit rate                         : 1 241 kb/s
Movie name                               : Sen Hiç Ateşböceği Gördün mü? - Sen Hiç Atesböcegi Gördün mü? - 2021 | Filmbol.org
Encoded date                             : UTC 2021-04-10 18:26:23
Writing application                      : mkvmerge v31.0.0 ('Dolores In A Shoestand') 64-bit
Writing library                          : libebml v1.3.6 + libmatroska v1.4.9
FileExtension_Invalid                    : mkv mk3d mka mks

Video
ID                                       : 1
Format                                   : MPEG-4 Visual
Format profile                           : Advanced [email protected]
Format settings                          : BVOP2
Format settings, BVOP                    : 2
Format settings, QPel                    : No
Format settings, GMC                     : No warppoints
Format settings, Matrix                  : Default (MPEG)
Muxing mode                              : Packed bitstream
Codec ID                                 : V_MS/VFW/FOURCC / XVID
Codec ID/Hint                            : XviD
Duration                                 : 1 h 54 min
Bit rate                                 : 1 111 kb/s
Width                                    : 720 pixels
Height                                   : 404 pixels
Display aspect ratio                     : 16:9
Frame rate mode                          : Constant
Frame rate                               : 24.000 FPS
Color space                              : YUV
Chroma subsampling                       : 4:2:0
Bit depth                                : 8 bits
Scan type                                : Progressive
Compression mode                         : Lossy
Bits/(Pixel*Frame)                       : 0.159
Stream size                              : 906 MiB (90%)
Title                                    : Sen Hiç Ateşböceği Gördün mü? - Sen Hiç Atesböcegi Gördün mü? - 2021 | Filmbol.org
Writing library                          : XviD 64
Default                                  : Yes
Forced                                   : No

Audio
ID                                       : 2
Format                                   : MPEG Audio
Format version                           : Version 1
Format profile                           : Layer 3
Format settings                          : Joint stereo / MS Stereo
Codec ID                                 : A_MPEG/L3
Codec ID/Hint                            : MP3
Duration                                 : 1 h 54 min
Bit rate mode                            : Constant
Bit rate                                 : 128 kb/s
Channel(s)                               : 2 channels
Sampling rate                            : 48.0 kHz
Frame rate                               : 41.667 FPS (1152 SPF)
Compression mode                         : Lossy
Stream size                              : 104 MiB (10%)
Title                                    : Sen Hiç Ateşböceği Gördün mü? - Sen Hiç Atesböcegi Gördün mü? - 2021 | Filmbol.org
Default                                  : Yes
Forced                                   : No

Film Detayları


 Sen Hiç Ateşböceği Gördün mü?

 Sen Hiç Ateşböceği Gördün mü?

 Sen Hiç Ateşböceği Gördün mü?


Film Fragmanı


Film Detayları


Uptobox ile indir

1Fichier ile indir

1Fichier'den İndiremiyor musun? Tıklayın!


Mega linki şuan da gizli. Kullanıma açmak için konuya yorum yapın ve ardından sayfayı yenileyin.

Mega


Bunun için üzgünüz ancak, bu linke sadece premium üyeler erişebilir.

Filmbol Cloud





Şuan Offine!
Şuan Offine!
ozzy1213 Yeni Üye
*
Üye

  • Konular0
  • Mesajlar1
  • Rep puanı 0
Çok teşekkürler emeğinize sağlık
Şuan Online!
Şuan Online!
TheSteeL Süper Moderatör
*****
Süper Moderatör

(02-05-2021, Saat: 02:00)ozzy1213 Adlı Kullanıcıdan Alıntı: Çok teşekkürler emeğinize sağlık
İyi Seyirler
Şuan Offine!
Şuan Offine!
MeRTeR Yeni Üye
*
Üye

  • Konular0
  • Mesajlar1
  • Rep puanı 0
emeğinize sağlık
Şuan Online!
Şuan Online!
TheSteeL Süper Moderatör
*****
Süper Moderatör

(16-05-2021, Saat: 23:14)MeRTeR Adlı Kullanıcıdan Alıntı: emeğinize sağlık
İyi Seyirler


Hızlı Menü: