Filmbol Forum Film İndir UHD - ULTRA HD - 4K v Senden Önce Ben (Me Before You) - 2016 - TR+ORG - 4K (Re-Encoding 1080P) | HEVC - 10Bit-x265 | tt2674426
Mega linklerinin şikayet edilmemesi için global erişime kapatıp sadece yorum yapanlara açıyoruz. Bu linkleri gizleme işlemini mecburen yapıyoruz ve yorum yapmanızın siteye değil size faydası vardır. Teşekürler yazmayı çok görüp, Random/Spam mesajlar atarak Mega linklerini açmaya çalışan kullanıcılara önce süresiz ban, devam ederse IP ban atacağız.
Filmbol'da moderatör olmak ister misiniz? Bizimle iletişime geçmek için tıklayın!
Senden Önce Ben (Me Before You) - 2016 - TR+ORG - 4K (Re-Encoding 1080P) | HEVC - 10Bit-x265 | tt2674426
BroserBros
Senden Önce Ben (Me Before You) - 2016 - TR+ORG - 4K (Re-Encoding 1080P) | HEVC - 10Bit-x265 | tt2674426
0
32
  • Derecelendirme: 0/5 - 0 oy
  • 1
  • 2
  • 3
  • 4
  • 5
Konuyu Okuyanlar:1 Ziyaretçi
Şuan Online!
Filmin Yayınlanma Tarihi: 2016 
WWW
Şuan Online!
BroserBros Kurucu Admin
*******
Admin



 Senden Önce Ben



Küçük bir kasabada yaşayan bir kız, felç geçiren bir adama bakıcı olarak işe başlar. Ancak bağları sadece bakıcı ve patron olarak değil, daha samimi ilerleyecektir.

Senden Önce Ben (2016) (Me Before You) | tt2674426 Filmi Imdb'den 215,000 kişi tarafından oylandı ve 7,4 puan aldı. Bu film için editör puanı %83 olarak belirlendi. İyi Seyirler!

Teknik Detaylar

Kod :
General
Unique ID                                : 169338072731627600781288324825605406061 (0x7F6553957EC8DF06FC34364FF836FD6D)
Complete name                            : /home/BroserBros/Desktop/3/Senden.Önce.Ben.2016.1080P.4K.BluRay.x265.10Bit.HDR.TR.ENG.Filmbol.mkv
Format                                   : Matroska
Format version                           : Version 4
File size                                : 4.21 GiB
Duration                                 : 1 h 50 min
Overall bit rate                         : 5 469 kb/s
Movie name                               : Senden Önce Ben - Me Before You - 2016 | Filmbol.org
Encoded date                             : UTC 2021-04-01 14:28:31
Writing application                      : mkvmerge v53.0.0 ('Fool's Gold') 64-bit
Writing library                          : libebml v1.4.1 + libmatroska v1.6.2

Video
ID                                       : 1
Format                                   : HEVC
Format/Info                              : High Efficiency Video Coding
Format profile                           : [email protected]@Main
Codec ID                                 : V_MPEGH/ISO/HEVC
Duration                                 : 1 h 50 min
Bit rate                                 : 3 879 kb/s
Width                                    : 1 920 pixels
Height                                   : 804 pixels
Display aspect ratio                     : 2.40:1
Frame rate mode                          : Constant
Frame rate                               : 23.976 (24000/1001) FPS
Color space                              : YUV
Chroma subsampling                       : 4:2:0
Bit depth                                : 8 bits
Bits/(Pixel*Frame)                       : 0.105
Stream size                              : 2.99 GiB (71%)
Title                                    : 4K (Re-Encoding 1080P) - Filmbol.org
Writing library                          : x265 2.9:[Windows][GCC 8.2.0][64 bit] 8bit+10bit+12bit
Encoding settings                        : cpuid=1111039 / frame-threads=3 / numa-pools=8 / wpp / no-pmode / no-pme / no-psnr / no-ssim / log-level=2 / input-csp=1 / input-res=1920x804 / interlace=0 / total-frames=0 / level-idc=0 / high-tier=1 / uhd-bd=0 / ref=3 / no-allow-non-conformance / no-repeat-headers / annexb / no-aud / no-hrd / info / hash=0 / no-temporal-layers / open-gop / min-keyint=24 / keyint=240 / gop-lookahead=0 / bframes=4 / b-adapt=2 / b-pyramid / bframe-bias=0 / rc-lookahead=20 / lookahead-slices=5 / scenecut=40 / radl=0 / no-intra-refresh / ctu=64 / min-cu-size=8 / no-rect / no-amp / max-tu-size=32 / tu-inter-depth=1 / tu-intra-depth=1 / limit-tu=0 / rdoq-level=0 / dynamic-rd=0.00 / no-ssim-rd / signhide / no-tskip / nr-intra=0 / nr-inter=0 / no-constrained-intra / strong-intra-smoothing / max-merge=2 / limit-refs=3 / no-limit-modes / me=1 / subme=2 / merange=57 / temporal-mvp / weightp / no-weightb / no-analyze-src-pics / deblock=0:0 / sao / no-sao-non-deblock / rd=3 / no-early-skip / rskip / no-fast-intra / no-tskip-fast / no-cu-lossless / no-b-intra / no-splitrd-skip / rdpenalty=0 / psy-rd=2.00 / psy-rdoq=0.00 / no-rd-refine / no-lossless / cbqpoffs=0 / crqpoffs=0 / rc=crf / crf=18.0 / qcomp=0.60 / qpstep=4 / stats-write=0 / stats-read=0 / ipratio=1.40 / pbratio=1.30 / aq-mode=1 / aq-strength=1.00 / cutree / zone-count=0 / no-strict-cbr / qg-size=32 / no-rc-grain / qpmax=69 / qpmin=0 / no-const-vbv / sar=1 / overscan=0 / videoformat=5 / range=0 / colorprim=1 / transfer=1 / colormatrix=1 / chromaloc=0 / display-window=0 / max-cll=0,0 / min-luma=0 / max-luma=255 / log2-max-poc-lsb=8 / vui-timing-info / vui-hrd-info / slices=1 / no-opt-qp-pps / no-opt-ref-list-length-pps / no-multi-pass-opt-rps / scenecut-bias=0.05 / no-opt-cu-delta-qp / no-aq-motion / no-hdr / no-hdr-opt / no-dhdr10-opt / no-idr-recovery-sei / analysis-reuse-level=5 / scale-factor=0 / refine-intra=0 / refine-inter=0 / refine-mv=0 / no-limit-sao / ctu-info=0 / no-lowpass-dct / refine-mv-type=0 / copy-pic=1 / max-ausize-factor=1.0 / no-dynamic-refine / no-single-sei
Language                                 : Italian
Default                                  : Yes
Forced                                   : No
Color range                              : Limited
Color primaries                          : BT.709
Transfer characteristics                 : BT.709
Matrix coefficients                      : BT.709

Audio #1
ID                                       : 2
Format                                   : AC-3
Format/Info                              : Audio Coding 3
Commercial name                          : Dolby Digital
Codec ID                                 : A_AC3
Duration                                 : 1 h 50 min
Bit rate mode                            : Constant
Bit rate                                 : 192 kb/s
Channel(s)                               : 2 channels
Channel layout                           : L R
Sampling rate                            : 44.1 kHz
Frame rate                               : 28.711 FPS (1536 SPF)
Compression mode                         : Lossy
Delay relative to video                  : -5 ms
Stream size                              : 151 MiB (4%)
Title                                    : Türkçe - Filmbol.org
Language                                 : Turkish
Service kind                             : Complete Main
Default                                  : Yes
Forced                                   : No

Audio #2
ID                                       : 3
Format                                   : AC-3
Format/Info                              : Audio Coding 3
Commercial name                          : Dolby Digital
Codec ID                                 : A_AC3
Duration                                 : 1 h 50 min
Bit rate mode                            : Constant
Bit rate                                 : 640 kb/s
Channel(s)                               : 6 channels
Channel layout                           : L R C LFE Ls Rs
Sampling rate                            : 48.0 kHz
Frame rate                               : 31.250 FPS (1536 SPF)
Compression mode                         : Lossy
Delay relative to video                  : -5 ms
Stream size                              : 505 MiB (12%)
Title                                    : Orjinal Dil - Filmbol.org
Language                                 : English
Service kind                             : Complete Main
Default                                  : No
Forced                                   : No

Audio #3
ID                                       : 4
Format                                   : DTS
Format/Info                              : Digital Theater Systems
Codec ID                                 : A_DTS
Duration                                 : 1 h 50 min
Bit rate mode                            : Constant
Bit rate                                 : 754 kb/s
Channel(s)                               : 6 channels
Channel layout                           : C L R Ls Rs LFE
Sampling rate                            : 48.0 kHz
Frame rate                               : 93.750 FPS (512 SPF)
Bit depth                                : 24 bits
Compression mode                         : Lossy
Delay relative to video                  : -5 ms
Stream size                              : 595 MiB (14%)
Title                                    : Orjinal Dil DTS - Filmbol.org
Language                                 : English
Default                                  : No
Forced                                   : No

Text #1
ID                                       : 5
Format                                   : UTF-8
Codec ID                                 : S_TEXT/UTF8
Codec ID/Info                            : UTF-8 Plain Text
Duration                                 : 1 h 45 min
Bit rate                                 : 67 b/s
Count of elements                        : 1315
Stream size                              : 51.8 KiB (0%)
Title                                    : Türkçe - Filmbol.org
Language                                 : Turkish
Default                                  : No
Forced                                   : No

Text #2
ID                                       : 6
Format                                   : PGS
Muxing mode                              : zlib
Codec ID                                 : S_HDMV/PGS
Codec ID/Info                            : Picture based subtitle format used on BDs/HD-DVDs
Duration                                 : 1 h 48 min
Bit rate                                 : 600 b/s
Count of elements                        : 56
Stream size                              : 475 KiB (0%)
Title                                    : Türkçe FORCED - Filmbol.org
Language                                 : Turkish
Default                                  : Yes
Forced                                   : No

Text #3
ID                                       : 7
Format                                   : UTF-8
Codec ID                                 : S_TEXT/UTF8
Codec ID/Info                            : UTF-8 Plain Text
Duration                                 : 1 h 45 min
Bit rate                                 : 66 b/s
Count of elements                        : 1746
Stream size                              : 51.2 KiB (0%)
Title                                    : Orjinal Dil - Filmbol.org
Language                                 : English
Default                                  : No
Forced                                   : No

Film Detayları


 Senden Önce Ben

 Senden Önce Ben

 Senden Önce Ben


Film Fragmanı


Film Detayları

Bu filmin orijinal DVD'si 4K olarak yayınlanmadığı için, tarafımızca yeniden x265 codec yapısı ile encode edilmiş ve genişlik ve yükseklik değeri sabit kalsa da bitrate oranı artırılmıştır. Sürüm 4K ile aynı kaliteye getirilmiştir.


Bunun için üzgünüz ancak, bu linke sadece premium üyeler erişebilir.

Filmbol Cloud







Konu ile Alakalı Benzer Konular
Konular Yazar Yorumlar Okunma Son Yorum
Filmin Yayınlanma Tarihi: 2006
X-Men: Son Direniş (X-Men: The Last Stand) - 2006 - TR+ORG - UHD (4K) - 10Bit-x265 | tt0376994 BroserBros 0 16 10-04-2021, Saat: 19:46
Son Yorum: BroserBros
Filmin Yayınlanma Tarihi: 2003
X-Men 2 (X2: X-Men United) - 2003 - TR+ORG - UHD (4K) - 10Bit-x265 | tt0290334 BroserBros 0 13 10-04-2021, Saat: 18:58
Son Yorum: BroserBros
Filmin Yayınlanma Tarihi: 2000
X-Men 1 (X-Men) - 2000 - TR+ORG - UHD (4K) - 10Bit-x265 | tt0120903 BroserBros 0 12 10-04-2021, Saat: 18:45
Son Yorum: BroserBros
Filmin Yayınlanma Tarihi: 2018
Uzun Kâbus (Slender Man) - 2018 - TR+ORG - UHD (4K) - 10Bit-x265 | tt5690360 BroserBros 0 13 10-04-2021, Saat: 18:26
Son Yorum: BroserBros
Filmin Yayınlanma Tarihi: 2019
O Bölüm 2 (It Chapter Two) - 2019 - TR+ORG - UHD (4K) - 10Bit-x265 | tt7349950 BroserBros 0 43 06-04-2021, Saat: 22:05
Son Yorum: BroserBros

Hızlı Menü: