Filmbol Forum Film İndir FHD - FULL HD v John Wick 2 (John Wick: Chapter 2) - 2017 - TR+ORG - FHD - x264 | tt4425200
Bildirimi Kapat
Server kaynaklı problemden dolayı ciddi bir sorun yaşadık. Şuanda forum ve portal aktif halde ancak bazı problemler hala devam ediyor. Problem gördüğünüz yerleri bize bildirmeniz çok önemli. Teşekkürler.

Bildirimi Kapat
Merhaba , site giderlerini bir nebze olsun karşılamak adına link kısaltma servisleri kullanmaya başladık. İndirme linkleri sizi ouo.io adresinde yönlendirecek, 3 saniye geçtikten sonra Get Link butonuna tıklayarak linke ulaşacaksınız. Premium üyeler bu durumdan etkilenmeyecektir.


Premium Üyelik Al

John Wick 2 (John Wick: Chapter 2) - 2017 - TR+ORG - FHD - x264 | tt4425200
BroserBros
John Wick 2 (John Wick: Chapter 2) - 2017 - TR+ORG - FHD - x264 | tt4425200
1
103
  • Derecelendirme: 0/5 - 0 oy
  • 1
  • 2
  • 3
  • 4
  • 5
Konuyu Okuyanlar:1 Ziyaretçi
Şuan Online!
Filmin Yayınlanma Tarihi: 2017 
Şuan Online!
BroserBros Kurucu Admin
*******
Admin


 John Wick 2



Emekliye ayrılmış olan John Wick can yoldaşı köpeğiyle sakin bir hayat sürmektedir. Ancak başına gelen kimi olaylar onu bir kez daha suç dünyasına iter. Bu kez bu uğurda Roma sokaklarını arşınlaması gerekecektir…
Başarılı aksiyon filmi John Wick’in devam filmi olacak John Wick’in yönetmen koltuğunda Chad Stahelski oturuyor. Filmin başrolünde yine Keanu Reeves’i izleyeceğiz. Filmin kadrosunda Ruby Rose, Bridget Moynahan, Ian McShane, Peter Stormare, Laurence Fishburne, John Leguizamo ve Common gibi isimler de yer alıyor.

John Wick 2 (2017) (John Wick: Chapter 2) | tt4425200 Filmi Imdb'den 380,000 kişi tarafından oylandı ve 7,5 puan aldı. Bu film için editör puanı %81 olarak belirlendi. İyi Seyirler!

Teknik Detaylar

Kod :
General
Unique ID                                : 117090465243442893565070746713247532472 (0x5816CDA6799E16E4D85723E73DF945B8)
Complete name                            : /home/BroserBros/Desktop/1/John.Wi.2.2017.FHD.BluRay.x264.TR.ENG.Filmbol.mkv
Format                                   : Matroska
Format version                           : Version 4
File size                                : 4.76 GiB
Duration                                 : 2 h 2 min
Overall bit rate                         : 5 568 kb/s
Movie name                               : John Wick Chapter 2 - 2017 | Filmbol.org
Encoded date                             : UTC 2021-03-31 12:45:15
Writing application                      : mkvmerge v53.0.0 ('Fool's Gold') 64-bit
Writing library                          : libebml v1.4.1 + libmatroska v1.6.2
Cover                                    : Yes
Attachments                              : cover.jpg / cover_land.jpg / small_cover.jpg / small_cover_land.jpg

Video
ID                                       : 1
Format                                   : AVC
Format/Info                              : Advanced Video Codec
Format profile                           : [email protected]
Format settings                          : CABAC / 5 Ref Frames
Format settings, CABAC                   : Yes
Format settings, Reference frames        : 5 frames
Codec ID                                 : V_MPEG4/ISO/AVC
Duration                                 : 2 h 2 min
Bit rate                                 : 4 542 kb/s
Width                                    : 1 912 pixels
Height                                   : 792 pixels
Display aspect ratio                     : 2.40:1
Frame rate mode                          : Constant
Frame rate                               : 23.976 (24000/1001) FPS
Color space                              : YUV
Chroma subsampling                       : 4:2:0
Bit depth                                : 8 bits
Scan type                                : Progressive
Bits/(Pixel*Frame)                       : 0.125
Stream size                              : 3.88 GiB (82%)
Title                                    : FHD - Filmbol.org
Language                                 : English
Default                                  : Yes
Forced                                   : No
Color range                              : Limited
Color primaries                          : BT.709
Transfer characteristics                 : BT.709
Matrix coefficients                      : BT.709

Audio #1
ID                                       : 2
Format                                   : AC-3
Format/Info                              : Audio Coding 3
Commercial name                          : Dolby Digital
Codec ID                                 : A_AC3
Duration                                 : 2 h 2 min
Bit rate mode                            : Constant
Bit rate                                 : 640 kb/s
Channel(s)                               : 6 channels
Channel layout                           : L R C LFE Ls Rs
Sampling rate                            : 48.0 kHz
Frame rate                               : 31.250 FPS (1536 SPF)
Compression mode                         : Lossy
Delay relative to video                  : -34 ms
Stream size                              : 560 MiB (11%)
Title                                    : Türkçe - Filmbol.org
Language                                 : Turkish
Service kind                             : Complete Main
Default                                  : Yes
Forced                                   : No

Audio #2
ID                                       : 3
Format                                   : AC-3
Format/Info                              : Audio Coding 3
Commercial name                          : Dolby Digital
Codec ID                                 : A_AC3
Duration                                 : 2 h 2 min
Bit rate mode                            : Constant
Bit rate                                 : 384 kb/s
Channel(s)                               : 6 channels
Channel layout                           : L R C LFE Ls Rs
Sampling rate                            : 48.0 kHz
Frame rate                               : 31.250 FPS (1536 SPF)
Compression mode                         : Lossy
Delay relative to video                  : -42 ms
Stream size                              : 336 MiB (7%)
Title                                    : Orjinal Dil - Filmbol.org
Language                                 : English
Service kind                             : Complete Main
Default                                  : No
Forced                                   : No

Text #1
ID                                       : 4
Format                                   : UTF-8
Codec ID                                 : S_TEXT/UTF8
Codec ID/Info                            : UTF-8 Plain Text
Duration                                 : 1 h 51 min
Bit rate                                 : 24 b/s
Count of elements                        : 622
Stream size                              : 19.9 KiB (0%)
Title                                    : Türkçe - Filmbol.org
Language                                 : Turkish
Default                                  : No
Forced                                   : No

Text #2
ID                                       : 5
Format                                   : UTF-8
Codec ID                                 : S_TEXT/UTF8
Codec ID/Info                            : UTF-8 Plain Text
Duration                                 : 1 h 49 min
Bit rate                                 : 22 b/s
Count of elements                        : 671
Stream size                              : 17.7 KiB (0%)
Title                                    : Orjinal Dil - Filmbol.org
Language                                 : English
Default                                  : No
Forced                                   : No

Film Detayları


 John Wick 2

 John Wick 2

 John Wick 2


Film Fragmanı


Film İndir



Zip Şifresi: filmbol.org Aşağıdaki butona tıklayarak kopyalabilirsiniz.





Filmbol Cloud

Bunun için üzgünüz ancak, bu linke sadece premium üyeler erişebilir.




WWW
Şuan Offine!
Şuan Offine!
Aybek Yeni Üye
*
Üye
  • Konular0
  • Mesajlar24
  • Rep puanı 0
Teşekkürler.


Hızlı Menü: