Filmbol Forum Film İndir 1080P v Soul (Soul) - 2020 - TR+ORG - 1080P | tt2948372

Premium Üyelik Al

Bildirimi Kapat
Mega linklerinin şikayet edilmemesi için global erişime kapatıp sadece yorum yapanlara açıyoruz. Bu linkleri gizleme işlemini mecburen yapıyoruz ve yorum yapmanızın siteye değil size faydası vardır. Teşekkürler yazmayı çok görüp, Random/Spam/Anlamsız mesajlar atarak forumu kirletip Mega linklerini açmaya çalışan kullanıcılara süresiz ban atacağız.


Soul (Soul) - 2020 - TR+ORG - 1080P | tt2948372
TheSteeL
Soul (Soul) - 2020 - TR+ORG - 1080P | tt2948372
5
185
  • Derecelendirme: 0/5 - 0 oy
  • 1
  • 2
  • 3
  • 4
  • 5
Konuyu Okuyanlar:1 Ziyaretçi
Şuan Online!
Filmin Yayınlanma Tarihi: 2020 
WWW
Şuan Online!
TheSteeL Süper Moderatör
*****
Süper Moderatör



 Soul



Animasyon türündeki Soul filmi, genç bir müzik öğretmenine odaklanıyor. Hayatının başından beri müziğe ilgi duyan ve bu ilgisini geliştiren Joe, öğretmen olmuştur. Fakat onun isteği bir öğretmen olmak değil, başarılı bir müzik grubu kurmak olmuştur. Neyse ki hayallerine çok yakındır. Yeni bir müzik grubu ile tanışan Joe, artık hayallerini gerçekleştirmek üzere New York'ta yola koyulur. Fakat işler ters gider ve Joe bir kanalizasyon kapağından aşağı düşer. Ancak bu sıradan bir kanalizasyon kapağı değildir, bir nevi sıçrama çukuru olan bu yere düşen insanlar farklı bir dünyaya ışınlanır...

Soul (2020) (Soul) | tt2948372 Filmi Imdb'den 210000 kişi tarafından oylandı ve 8,1 puan aldı. Bu film için editör puanı %83 olarak belirlendi. İyi Seyirler!

Teknik Detaylar

Kod :
General
Unique ID                                : 266516092427378638464626215116637079446 (0xC88121DEDA066712E10FBF8296220796)
Complete name                            : /home/TheSteel/Desktop/1/Soul.2020.1080p.BLURAY.x264.TR.ENG.Filmbol.mkv
Format                                   : Matroska
Format version                           : Version 4
File size                                : 1.99 GiB
Duration                                 : 1 h 40 min
Overall bit rate                         : 2 828 kb/s
Movie name                               : Soul - 2020 | Filmbol.org
Encoded date                             : UTC 2021-03-29 16:50:17
Writing application                      : mkvmerge v31.0.0 ('Dolores In A Shoestand') 64-bit
Writing library                          : libebml v1.3.6 + libmatroska v1.4.9

Video
ID                                       : 1
Format                                   : AVC
Format/Info                              : Advanced Video Codec
Format profile                           : [email protected]
Format settings                          : CABAC / 4 Ref Frames
Format settings, CABAC                   : Yes
Format settings, Reference frames        : 4 frames
Codec ID                                 : V_MPEG4/ISO/AVC
Duration                                 : 1 h 40 min
Bit rate                                 : 2 250 kb/s
Width                                    : 1 920 pixels
Height                                   : 800 pixels
Display aspect ratio                     : 2.40:1
Frame rate mode                          : Constant
Frame rate                               : 23.976 (24000/1001) FPS
Color space                              : YUV
Chroma subsampling                       : 4:2:0
Bit depth                                : 8 bits
Scan type                                : Progressive
Bits/(Pixel*Frame)                       : 0.061
Stream size                              : 1.58 GiB (80%)
Title                                    : Soul - 2020 | Filmbol.org
Writing library                          : x264 core 159
Encoding settings                        : cabac=1 / ref=4 / deblock=1:-1:-1 / analyse=0x3:0x133 / me=umh / subme=9 / psy=1 / psy_rd=1.00:0.15 / mixed_ref=1 / me_range=24 / chroma_me=1 / trellis=2 / 8x8dct=1 / cqm=0 / deadzone=21,11 / fast_pskip=0 / chroma_qp_offset=-3 / threads=18 / lookahead_threads=1 / sliced_threads=0 / nr=0 / decimate=1 / interlaced=0 / bluray_compat=0 / constrained_intra=0 / bframes=3 / b_pyramid=2 / b_adapt=2 / b_bias=0 / direct=3 / weightb=1 / open_gop=0 / weightp=2 / keyint=250 / keyint_min=23 / scenecut=40 / intra_refresh=0 / rc_lookahead=60 / rc=2pass / mbtree=1 / bitrate=2250 / ratetol=1.0 / qcomp=0.60 / qpmin=0 / qpmax=69 / qpstep=4 / cplxblur=20.0 / qblur=0.5 / vbv_maxrate=31250 / vbv_bufsize=31250 / nal_hrd=none / filler=0 / ip_ratio=1.40 / aq=1:1.00
Default                                  : Yes
Forced                                   : No

Audio #1
ID                                       : 2
Format                                   : AC-3
Format/Info                              : Audio Coding 3
Commercial name                          : Dolby Digital
Codec ID                                 : A_AC3
Duration                                 : 1 h 40 min
Bit rate mode                            : Constant
Bit rate                                 : 384 kb/s
Channel(s)                               : 6 channels
Channel layout                           : L R C LFE Ls Rs
Sampling rate                            : 48.0 kHz
Frame rate                               : 31.250 FPS (1536 SPF)
Compression mode                         : Lossy
Stream size                              : 276 MiB (14%)
Title                                    : Soul - 2020 | Filmbol.org
Language                                 : Turkish
Service kind                             : Complete Main
Default                                  : Yes
Forced                                   : No

Audio #2
ID                                       : 3
Format                                   : AC-3
Format/Info                              : Audio Coding 3
Commercial name                          : Dolby Digital
Codec ID                                 : A_AC3
Duration                                 : 1 h 40 min
Bit rate mode                            : Constant
Bit rate                                 : 192 kb/s
Channel(s)                               : 2 channels
Channel layout                           : L R
Sampling rate                            : 48.0 kHz
Frame rate                               : 31.250 FPS (1536 SPF)
Compression mode                         : Lossy
Stream size                              : 138 MiB (7%)
Title                                    : Soul - 2020 | Filmbol.org
Language                                 : English
Service kind                             : Complete Main
Default                                  : No
Forced                                   : No

Text
ID                                       : 4
Format                                   : UTF-8
Codec ID                                 : S_TEXT/UTF8
Codec ID/Info                            : UTF-8 Plain Text
Duration                                 : 1 h 39 min
Bit rate                                 : 66 b/s
Count of elements                        : 1337
Stream size                              : 48.8 KiB (0%)
Title                                    : Soul - 2020 | Filmbol.org
Language                                 : Turkish
Default                                  : No
Forced                                   : No

Film Detayları


 Soul

 Soul

 Soul


Film Fragmanı


Film Detayları

Uptobox ile indir

1Fichier ile indir

1Fichier'den İndiremiyor musun? Tıklayın!


Mega linki şuan da gizli. Kullanıma açmak için konuya yorum yapın ve ardından sayfayı yenileyin.

Mega


Bunun için üzgünüz ancak, bu linke sadece premium üyeler erişebilir.

Filmbol Cloud





Şuan Offine!
Şuan Offine!
ahmettuncr Süper Üye
***
Super Üye

  • Konular0
  • Mesajlar45
  • Rep puanı 0
FİLM ÇOK GÜZELDİ
Şuan Offine!
Şuan Offine!
blue_mpact Uzman Üye
**
Uzman Üye

  • Konular0
  • Mesajlar10
  • Rep puanı 0
teşekkürler.
Şuan Online!
Şuan Online!
TheSteeL Süper Moderatör
*****
Süper Moderatör

(03-04-2021, Saat: 18:06)blue_mpact Adlı Kullanıcıdan Alıntı: teşekkürler.
İyi Seyirler

(02-04-2021, Saat: 23:23)ahmettuncr Adlı Kullanıcıdan Alıntı: FİLM ÇOK GÜZELDİ
Teşekkürler İyi Seyirler
Şuan Offine!
Şuan Offine!
ermania Yeni Üye
*
Üye

  • Konular0
  • Mesajlar1
  • Rep puanı 0
teşekkurler
Şuan Online!
Şuan Online!
TheSteeL Süper Moderatör
*****
Süper Moderatör

(13-06-2021, Saat: 13:48)ermania Adlı Kullanıcıdan Alıntı: teşekkurler
İyi Seyirler


Hızlı Menü: