Filmbol Forum Film İndir BRRip XviD v Soul (Soul) - 2020 - TR - BRRip XviD | tt2948372
Bildirimi Kapat
Server kaynaklı problemden dolayı ciddi bir sorun yaşadık. Şuanda forum ve portal aktif halde ancak bazı problemler hala devam ediyor. Problem gördüğünüz yerleri bize bildirmeniz çok önemli. Teşekkürler.

Bildirimi Kapat
Merhaba , site giderlerini bir nebze olsun karşılamak adına link kısaltma servisleri kullanmaya başladık. İndirme linkleri sizi ouo.io adresinde yönlendirecek, 3 saniye geçtikten sonra Get Link butonuna tıklayarak linke ulaşacaksınız. Premium üyeler bu durumdan etkilenmeyecektir.


Premium Üyelik Al

Soul (Soul) - 2020 - TR - BRRip XviD | tt2948372
TheSteeL
Soul (Soul) - 2020 - TR - BRRip XviD | tt2948372
4
233
  • Derecelendirme: 0/5 - 0 oy
  • 1
  • 2
  • 3
  • 4
  • 5
Konuyu Okuyanlar:1 Ziyaretçi
Şuan Online!
Filmin Yayınlanma Tarihi: 2020 
Şuan Online!
TheSteeL Chief Executive Officer
******
CEO


 Soul



Animasyon türündeki Soul filmi, genç bir müzik öğretmenine odaklanıyor. Hayatının başından beri müziğe ilgi duyan ve bu ilgisini geliştiren Joe, öğretmen olmuştur. Fakat onun isteği bir öğretmen olmak değil, başarılı bir müzik grubu kurmak olmuştur. Neyse ki hayallerine çok yakındır. Yeni bir müzik grubu ile tanışan Joe, artık hayallerini gerçekleştirmek üzere New York'ta yola koyulur. Fakat işler ters gider ve Joe bir kanalizasyon kapağından aşağı düşer. Ancak bu sıradan bir kanalizasyon kapağı değildir, bir nevi sıçrama çukuru olan bu yere düşen insanlar farklı bir dünyaya ışınlanır...

Soul (2020) (Soul) | tt2948372 Filmi Imdb'den 210000 kişi tarafından oylandı ve 8,1 puan aldı. Bu film için editör puanı %83 olarak belirlendi. İyi Seyirler!

Teknik Detaylar

Kod :
General
Unique ID                                : 212302386648267543983471577447641717900 (0x9FB7F3CE9747ABC89AACB3FE4C211C8C)
Complete name                            : /home/TheSteel/Desktop/1/Soul.2020.BDRip.XViD.TR.Filmbol.avi
Format                                   : Matroska
Format version                           : Version 4
File size                                : 1.23 GiB
Duration                                 : 1 h 40 min
Overall bit rate                         : 1 752 kb/s
Movie name                               : Soul - 2020 | Filmbol.org
Encoded date                             : UTC 2021-03-29 17:10:23
Writing application                      : mkvmerge v31.0.0 ('Dolores In A Shoestand') 64-bit
Writing library                          : libebml v1.3.6 + libmatroska v1.4.9
FileExtension_Invalid                    : mkv mk3d mka mks

Video
ID                                       : 1
Format                                   : MPEG-4 Visual
Format profile                           : Advanced [email protected]
Format settings                          : BVOP1 / Custom Matrix
Format settings, BVOP                    : 1
Format settings, QPel                    : No
Format settings, GMC                     : No warppoints
Format settings, Matrix                  : Custom
Codec ID                                 : V_MS/VFW/FOURCC / XVID
Codec ID/Hint                            : XviD
Duration                                 : 1 h 40 min
Bit rate                                 : 1 622 kb/s
Width                                    : 720 pixels
Height                                   : 304 pixels
Display aspect ratio                     : 2.35:1
Frame rate mode                          : Constant
Frame rate                               : 23.976 (23976/1000) FPS
Color space                              : YUV
Chroma subsampling                       : 4:2:0
Bit depth                                : 8 bits
Scan type                                : Progressive
Compression mode                         : Lossy
Bits/(Pixel*Frame)                       : 0.309
Stream size                              : 1.14 GiB (93%)
Title                                    : Soul - 2020 | Filmbol.org
Writing library                          : XviD 73
Default                                  : Yes
Forced                                   : No

Audio
ID                                       : 2
Format                                   : MPEG Audio
Format version                           : Version 1
Format profile                           : Layer 3
Format settings                          : Joint stereo / MS Stereo
Codec ID                                 : A_MPEG/L3
Codec ID/Hint                            : MP3
Duration                                 : 1 h 40 min
Bit rate mode                            : Constant
Bit rate                                 : 128 kb/s
Channel(s)                               : 2 channels
Sampling rate                            : 48.0 kHz
Frame rate                               : 41.667 FPS (1152 SPF)
Compression mode                         : Lossy
Stream size                              : 92.0 MiB (7%)
Title                                    : Soul - 2020 | Filmbol.org
Writing library                          : LAME
Default                                  : Yes
Forced                                   : No

Film Detayları


 Soul

 Soul

 Soul


Film Fragmanı


Film İndir



Zip Şifresi: filmbol.org Aşağıdaki butona tıklayarak kopyalabilirsiniz.



Uptobox ile indir

1Fichier ile indir

1Fichier'den İndiremiyor musun? Tıklayın!






Filmbol Cloud

Bunun için üzgünüz ancak, bu linke sadece premium üyeler erişebilir.




WWW
Şuan Offine!
Şuan Offine!
Deryunesi Yeni Üye
*
Üye
  • Konular0
  • Mesajlar4
  • Rep puanı 0
Teşekürler
Şuan Online!
Şuan Online!
TheSteeL Chief Executive Officer
******
CEO
(03-05-2021, Saat: 20:20)Deryunesi Adlı Kullanıcıdan Alıntı: Teşekürler
İyi Seyirler
Şuan Offine!
Şuan Offine!
Tarık Coşkun Yeni Üye
*
Üye
  • Konular0
  • Mesajlar11
  • Rep puanı 0
Teşekkürler
Şuan Online!
Şuan Online!
TheSteeL Chief Executive Officer
******
CEO
(05-08-2021, Saat: 20:56)Tarık Coşkun Adlı Kullanıcıdan Alıntı: Teşekkürler
İyi Seyirler


Hızlı Menü: