Filmbol Forum Film İndir 720P v Ve Sonra Dans Ettik (And Then We Danced) - 2019 - TR+ORG - 720P
Bildirimi Kapat
Üyelik alımları açıldı.


Bildirimi Kapat
Mega linklerinin şikayet edilmemesi için global erişime kapatıp sadece yorum yapanlara açıyoruz. Bu linkleri gizleme işlemini mecburen yapıyoruz ve yorum yapmanızın siteye değil size faydası vardır. Teşekkürler yazmayı çok görüp, Random/Spam/Anlamsız mesajlar atarak forumu kirletip Mega linklerini açmaya çalışan kullanıcılara süresiz ban atacağız.

Premium Üyelik Al

Ve Sonra Dans Ettik (And Then We Danced) - 2019 - TR+ORG - 720P
BroserBros
Ve Sonra Dans Ettik (And Then We Danced) - 2019 - TR+ORG - 720P
1
315
  • Derecelendirme: 0/5 - 0 oy
  • 1
  • 2
  • 3
  • 4
  • 5
Konuyu Okuyanlar:1 Ziyaretçi
Şuan Online!
Filmin Yayınlanma Tarihi: 2019 
WWW
Şuan Online!
BroserBros Kurucu Admin
*******
Admin








 Ve Sonra Dans Ettik



Merab çok istekli ve güçlü dans meraklısı bir gençtir. Bu hayattan beklentisi en iyi dansçı olmaktır ve bir gün yeni tanıştığı Irakli ile aralarında bir kıskançlık oluşur çünkü Irakli Merab için bir rakipten başkası değildir. Fakat zaman geçtikçe bu kıskançlık yerini bambaşka duygulara bırakır...

Ve Sonra Dans Ettik (2019) (And Then We Danced) Filmi Imdb'den 7,000 kişi tarafından oylandı ve 7,8 puan aldı. Bu film için editör puanı 6,5 olarak belirlendi. İyi Seyirler!

Teknik Detaylar

Kod :
General
Unique ID                                : 194045955351297387346092160857907287920 (0x91FBE43FE2EBA1A1242AB3B047CA5770)
Complete name                            : /root/Desktop/1/Ve.Sonra.Dans.Ettik.2019.720p.WEB-DL.x264.TR.GEO.Filmbol.mkv
Format                                  : Matroska
Format version                          : Version 4 / Version 2
File size                                : 1.24 GiB
Duration                                : 1h 53mn
Overall bit rate                        : 1 564 Kbps
Movie name                              : Ve Sonra Dans Ettik - And Then We Danced - 2019 | Filmbol.org
Encoded date                            : UTC 2020-06-26 18:51:00
Writing application                      : mkvmerge v8.8.0 ('Wind at my back') 64bit
Writing library                          : libebml v1.3.3 + libmatroska v1.4.4

Video
ID                                      : 1
Format                                  : AVC
Format/Info                              : Advanced Video Codec
Format profile                          : [email protected]
Format settings, CABAC                  : Yes
Format settings, ReFrames                : 2 frames
Codec ID                                : V_MPEG4/ISO/AVC
Duration                                : 1h 53mn
Bit rate                                : 1 210 Kbps
Width                                    : 1 280 pixels
Height                                  : 720 pixels
Display aspect ratio                    : 16:9
Frame rate mode                          : Constant
Frame rate                              : 23.976 (24000/1001) fps
Color space                              : YUV
Chroma subsampling                      : 4:2:0
Bit depth                                : 8 bits
Scan type                                : Progressive
Bits/(Pixel*Frame)                      : 0.055
Stream size                              : 978 MiB (77%)
Title                                    : Filmbol.org
Default                                  : Yes
Forced                                  : No

Audio #1
ID                                      : 2
Format                                  : AC-3
Format/Info                              : Audio Coding 3
Mode extension                          : CM (complete main)
Format settings, Endianness              : Big
Codec ID                                : A_AC3
Duration                                : 1h 53mn
Bit rate mode                            : Constant
Bit rate                                : 128 Kbps
Channel(s)                              : 2 channels
Channel positions                        : Front: L R
Sampling rate                            : 44.1 KHz
Frame rate                              : 28.711 fps (1536 spf)
Compression mode                        : Lossy
Stream size                              : 104 MiB (8%)
Title                                    : Filmbol.org
Language                                : Turkish
Default                                  : Yes
Forced                                  : No

Audio #2
ID                                      : 3
Format                                  : AC-3
Format/Info                              : Audio Coding 3
Mode extension                          : CM (complete main)
Format settings, Endianness              : Big
Codec ID                                : A_AC3
Duration                                : 1h 53mn
Bit rate mode                            : Constant
Bit rate                                : 224 Kbps
Channel(s)                              : 2 channels
Channel positions                        : Front: L R
Sampling rate                            : 48.0 KHz
Frame rate                              : 31.250 fps (1536 spf)
Compression mode                        : Lossy
Stream size                              : 181 MiB (14%)
Title                                    : Filmbol.org
Language                                : Georgian
Default                                  : No
Forced                                  : No

Text
ID                                      : 4
Format                                  : UTF-8
Codec ID                                : S_TEXT/UTF8
Codec ID/Info                            : UTF-8 Plain Text
Duration                                : 1h 45mn
Bit rate                                : 28 bps
Count of elements                        : 864
Stream size                              : 22.5 KiB (0%)
Title                                    : Filmbol.org
Language                                : Turkish
Default                                  : No
Forced                                  : No

Film Detayları


 Ve Sonra Dans Ettik

 Ve Sonra Dans Ettik

 Ve Sonra Dans Ettik


Film Fragmanı


Film Detayları



Zip Şifresi: filmbol.org Aşağıdaki butona tıklayarak kopyalabilirsiniz.


Uptobox ile indir

1Fichier ile indir

1Fichier'den İndiremiyor musun? Tıklayın!


Mega linki şuan da gizli. Kullanıma açmak için konuya yorum yapın ve ardından sayfayı yenileyin.

Mega


Bunun için üzgünüz ancak, bu linke sadece premium üyeler erişebilir.

Filmbol Cloud

Şuan Online!
Şuan Online!
BroserBros Kurucu Admin
*******
Admin

21.01.2021 Yönetici Notu:

Kırık linkler kontrol edildi, kaldırıldı ve yenilendi. Tüm linkler tamamen çalışır durumda.


Hızlı Menü: