Filmbol Forum Film İndir FHD - FULL HD v 365 Dni (365 Days - 365 Gün) - 2020 - TR+ORG - FHD - x264
Bildirimi Kapat
Üyelik alımları açıldı.


Bildirimi Kapat
Mega linklerinin şikayet edilmemesi için global erişime kapatıp sadece yorum yapanlara açıyoruz. Bu linkleri gizleme işlemini mecburen yapıyoruz ve yorum yapmanızın siteye değil size faydası vardır. Teşekkürler yazmayı çok görüp, Random/Spam/Anlamsız mesajlar atarak forumu kirletip Mega linklerini açmaya çalışan kullanıcılara süresiz ban atacağız.

Premium Üyelik Al

365 Dni (365 Days - 365 Gün) - 2020 - TR+ORG - FHD - x264
BroserBros
365 Dni (365 Days - 365 Gün) - 2020 - TR+ORG - FHD - x264
0
505
  • Derecelendirme: 0/5 - 0 oy
  • 1
  • 2
  • 3
  • 4
  • 5
Konuyu Okuyanlar:1 Ziyaretçi
Şuan Online!
Filmin Yayınlanma Tarihi: 2020 
WWW
Şuan Online!
BroserBros Kurucu Admin
*******
Admin








 365 Dni



Zorla güzellik olmaz mı? Tekrar düşünün. Massimo babasının ölmünün ardından boşlukta olan sistemin başına geçer ve aslında Massimonun babası bir Sicilya Mafyasıdır. Laura ise genç ve güzel bir kızdır ve bir gün Massimo ile karşılaştığımda Massimo ondan etkilenir ve kaçırır. Görünüşe göre Laura Massimo için aynı duyguyu beslememektedir ancak bölgenin en güçlü adamı olan Massimo kendine aşık olması için Laura'ya 365 Gün zaman tanır...

365 Dni (2020) (365 Days - 365 Gün) Filmi Imdb'den 13,000 kişi tarafından oylandı ve 3,6 puan aldı. Bu film için editör puanı 5,0 olarak belirlendi. İyi Seyirler!

Teknik Detaylar

Kod :
General
Unique ID                                : 110570980634817301925739467381449589925 (0x532F323DFF0122FB1754018B59BE84A5)
Complete name                            : /root/Desktop/3/365.Dni.2020.FHD.WEB-DL.x264.TR.POL.Filmbol.mkv
Format                                  : Matroska
Format version                          : Version 4 / Version 2
File size                                : 3.33 GiB
Duration                                : 1h 54mn
Overall bit rate mode                    : Variable
Overall bit rate                        : 4 169 Kbps
Movie name                              : 365 Dni - 365 Days - 2020 | Filmbol.org
Encoded date                            : UTC 2020-06-16 16:28:38
Writing application                      : mkvmerge v8.8.0 ('Wind at my back') 64bit
Writing library                          : libebml v1.3.3 + libmatroska v1.4.4

Video
ID                                      : 1
Format                                  : AVC
Format/Info                              : Advanced Video Codec
Format profile                          : [email protected]
Format settings, CABAC                  : Yes
Format settings, ReFrames                : 3 frames
Codec ID                                : V_MPEG4/ISO/AVC
Duration                                : 1h 53mn
Bit rate mode                            : Variable
Bit rate                                : 3 160 Kbps
Maximum bit rate                        : 4 740 Kbps
Width                                    : 1 920 pixels
Height                                  : 1 080 pixels
Display aspect ratio                    : 16:9
Frame rate mode                          : Constant
Frame rate                              : 24.000 fps
Color space                              : YUV
Chroma subsampling                      : 4:2:0
Bit depth                                : 8 bits
Scan type                                : Progressive
Bits/(Pixel*Frame)                      : 0.063
Stream size                              : 2.51 GiB (75%)
Title                                    : Filmbol.org
Writing library                          : x264 core 148 r2717 0d2410d
Encoding settings                        : cabac=1 / ref=3 / deblock=1:0:0 / analyse=0x1:0x111 / me=umh / subme=10 / psy=1 / psy_rd=1.00:0.00 / mixed_ref=1 / me_range=24 / chroma_me=1 / trellis=2 / 8x8dct=0 / cqm=0 / deadzone=21,11 / fast_pskip=1 / chroma_qp_offset=-2 / threads=8 / lookahead_threads=1 / sliced_threads=0 / nr=0 / decimate=1 / interlaced=0 / bluray_compat=0 / stitchable=1 / constrained_intra=0 / bframes=2 / b_pyramid=0 / b_adapt=2 / b_bias=0 / direct=3 / weightb=1 / open_gop=0 / weightp=2 / keyint=250 / keyint_min=24 / scenecut=0 / intra_refresh=0 / rc_lookahead=48 / rc=2pass / mbtree=1 / bitrate=3160 / ratetol=1.0 / qcomp=0.50 / qpmin=6 / qpmax=51 / qpstep=4 / cplxblur=20.0 / qblur=0.5 / vbv_maxrate=4740 / vbv_bufsize=6320 / nal_hrd=vbr / filler=0 / ip_ratio=1.40 / aq=1:1.00
Default                                  : Yes
Forced                                  : No

Audio #1
ID                                      : 2
Format                                  : AC-3
Format/Info                              : Audio Coding 3
Mode extension                          : CM (complete main)
Format settings, Endianness              : Big
Codec ID                                : A_AC3
Duration                                : 1h 54mn
Bit rate mode                            : Constant
Bit rate                                : 640 Kbps
Channel(s)                              : 6 channels
Channel positions                        : Front: L C R, Side: L R, LFE
Sampling rate                            : 48.0 KHz
Frame rate                              : 31.250 fps (1536 spf)
Compression mode                        : Lossy
Stream size                              : 523 MiB (15%)
Title                                    : Filmbol.org
Language                                : Turkish
Default                                  : Yes
Forced                                  : No

Audio #2
ID                                      : 3
Format                                  : AC-3
Format/Info                              : Audio Coding 3
Mode extension                          : CM (complete main)
Format settings, Endianness              : Big
Codec ID                                : A_AC3
Duration                                : 1h 54mn
Bit rate mode                            : Constant
Bit rate                                : 384 Kbps
Channel(s)                              : 6 channels
Channel positions                        : Front: L C R, Side: L R, LFE
Sampling rate                            : 48.0 KHz
Frame rate                              : 31.250 fps (1536 spf)
Compression mode                        : Lossy
Stream size                              : 314 MiB (9%)
Title                                    : Filmbol.org
Language                                : Polish
Default                                  : No
Forced                                  : No

Text #1
ID                                      : 4
Format                                  : UTF-8
Codec ID                                : S_TEXT/UTF8
Codec ID/Info                            : UTF-8 Plain Text
Duration                                : 1h 53mn
Bit rate                                : 11 bps
Count of elements                        : 315
Stream size                              : 9.14 KiB (0%)
Title                                    : Filmbol.org
Language                                : Turkish
Default                                  : Yes
Forced                                  : Yes

Text #2
ID                                      : 5
Format                                  : UTF-8
Codec ID                                : S_TEXT/UTF8
Codec ID/Info                            : UTF-8 Plain Text
Duration                                : 1h 53mn
Bit rate                                : 27 bps
Count of elements                        : 807
Stream size                              : 22.8 KiB (0%)
Title                                    : Filmbol.org
Language                                : Turkish
Default                                  : No

Film Detayları


 365 Dni

 365 Dni

 365 Dni


Film Fragmanı


Film Detayları



Zip Şifresi: filmbol.org Aşağıdaki butona tıklayarak kopyalabilirsiniz.



Mega linki şuan da gizli. Kullanıma açmak için konuya yorum yapın ve ardından sayfayı yenileyin.

Mega


Bunun için üzgünüz ancak, bu linke sadece premium üyeler erişebilir.

Filmbol Cloud



Hızlı Menü: