Filmbol Forum Film İndir BRRip XviD v Başlangıç (Inception) - 2010 - TR - BRRip XviD | tt1375666
Mega linklerinin şikayet edilmemesi için global erişime kapatıp sadece yorum yapanlara açıyoruz. Bu linkleri gizleme işlemini mecburen yapıyoruz ve yorum yapmanızın siteye değil size faydası vardır. Teşekürler yazmayı çok görüp, Random/Spam mesajlar atarak Mega linklerini açmaya çalışan kullanıcılara önce süresiz ban, devam ederse IP ban atacağız.
Filmbol'da moderatör olmak ister misiniz? Bizimle iletişime geçmek için tıklayın!
Başlangıç (Inception) - 2010 - TR - BRRip XviD | tt1375666
BroserBros
Başlangıç (Inception) - 2010 - TR - BRRip XviD | tt1375666
3
1952
  • Derecelendirme: 0/5 - 0 oy
  • 1
  • 2
  • 3
  • 4
  • 5
Konuyu Okuyanlar:1 Ziyaretçi
Şuan Online!
Filmin Yayınlanma Tarihi: 2010 
WWW
Şuan Online!
BroserBros Kurucu Admin
*******
Admin



 Başlangıç



Başlangıç, doğaüstü ve büyülü gerçekçi tonları, bilim kurgu ve fantazmatik sinema estetiği ile harmanlayan ilginç senaryosuyla, Leonardo DiCaprio’nun üst düzey performans sergilediği değişik bir film. Bu yapımda sanatçı, çok yetenekli bir hırsız olan “Dom Cobb ” ile karşımızda. Uzmanlık alanı, zihnin en karanlık ve savunmasız olduğu rüya görme anında, bilinçaltının derinliklerindeki değerli sırları çekip çıkarmak ve onları çalmaktır. Cobb’un bu nadir insanlarda görülebilecek yeteneği, bu ender rastgelinebilecek mahareti, onu kurumsal casusluğun tehlikeli yeni dünyasında aranan bir oyuncu yapmıştır. Aynı zamanda bu durum onu uluslararası bir kaçak yapmış ve sevdiği herşeye malolmuştur. Cobb’a içinde bulunduğu durumdan kurtulmasını sağlayacak bir fırsat sunulur. Ona hayatını geri verebilecek son bir iş; tabi eğer imkansız ?başlangıç’ı tamamlayabilirse. Mükemmel soygun yerine, Cobb ve takımındaki profesyoneller bu sefer tam tersini yapmak zorundadır; görevleri bir fikri çalmak değil onu yerleştirmektir. Eğer başarırlarsa, mükemmel suç bu olacaktır.

Başlangıç (2010) (Inception) | tt1375666 Filmi Imdb'den 2,150,000 kişi tarafından oylandı ve 8,8 puan aldı. Bu film için editör puanı %100 olarak belirlendi. İyi Seyirler!

Teknik Detaylar

Kod :
General
Unique ID                                : 79568106320597545570160611727872921187 (0x3BDC42860F844F8F7693232E96E88E63)
Complete name                            : /home/BroserBros/Desktop/4/Başlangıç.2010.BRRip.XviD.TR.Filmbol.avi
Format                                   : Matroska
Format version                           : Version 4
File size                                : 1.44 GiB
Duration                                 : 2 h 28 min
Overall bit rate                         : 1 393 kb/s
Movie name                               : Başlangıç - Inception - 2010 | Filmbol.org
Encoded date                             : UTC 2021-05-08 15:09:03
Writing application                      : mkvmerge v53.0.0 ('Fool's Gold') 64-bit
Writing library                          : libebml v1.4.1 + libmatroska v1.6.2
FileExtension_Invalid                    : mkv mk3d mka mks

Video
ID                                       : 1
Format                                   : V_MS/VFW/FOURCC / xvid
Codec ID                                 : V_MS/VFW/FOURCC / xvid
Duration                                 : 2 h 28 min
Bit rate                                 : 1 199 kb/s
Width                                    : 640 pixels
Height                                   : 268 pixels
Display aspect ratio                     : 2.40:1
Frame rate mode                          : Constant
Frame rate                               : 23.976 (24000/1001) FPS
Bits/(Pixel*Frame)                       : 0.292
Stream size                              : 1.24 GiB (86%)
Title                                    : Başlangıç - Inception - 2010 | Filmbol.org
Default                                  : Yes
Forced                                   : No

Audio
ID                                       : 2
Format                                   : AC-3
Format/Info                              : Audio Coding 3
Commercial name                          : Dolby Digital
Codec ID                                 : A_AC3
Duration                                 : 2 h 28 min
Bit rate mode                            : Constant
Bit rate                                 : 192 kb/s
Channel(s)                               : 6 channels
Channel layout                           : L R C LFE Ls Rs
Sampling rate                            : 48.0 kHz
Frame rate                               : 31.250 FPS (1536 SPF)
Compression mode                         : Lossy
Stream size                              : 203 MiB (14%)
Title                                    : Başlangıç - Inception - 2010 | Filmbol.org
Service kind                             : Complete Main
Default                                  : Yes
Forced                                   : No

Film Detayları


 Başlangıç

 Başlangıç

 Başlangıç


Film Fragmanı


Film Detayları


Uptobox ile indir

1Fichier ile indir

1Fichier'den İndiremiyor musun? Tıklayın!


Mega linki şuan da gizli. Kullanıma açmak için konuya yorum yapın ve ardından sayfayı yenileyin.

Mega


Bunun için üzgünüz ancak, bu linke sadece premium üyeler erişebilir.

Filmbol Cloud





Şuan Offine!
Şuan Offine!
back-ir Süper Üye
***
Super Üye

  • Konular0
  • Mesajlar29
  • Rep puanı 1
Devamını beklediğim bir film, ama ne zaman kim bilir?
Şuan Online!
Şuan Online!
BroserBros Kurucu Admin
*******
Admin

07.12.2019 Güncelleme Notu:

Linkler yenilendi. Kırık linkler kaldırıldı ve Genel Konu Düzenlemesi Yapıldı
Şuan Online!
Şuan Online!
BroserBros Kurucu Admin
*******
Admin

09.05.2021 Yönetici Notu:

Kırık linkler kontrol edildi, kaldırıldı ve yenilendi. Tüm linkler tamamen çalışır durumda.


Hızlı Menü: