Filmbol Forum Film İndir BRRip XviD v Çılgın Hırsız 2 (Despicable Me 2) - 2013 - TR - BRRip XviD
Bildirimi Kapat
Üyelik alımları açıldı.


Bildirimi Kapat
Mega linklerinin şikayet edilmemesi için global erişime kapatıp sadece yorum yapanlara açıyoruz. Bu linkleri gizleme işlemini mecburen yapıyoruz ve yorum yapmanızın siteye değil size faydası vardır. Teşekkürler yazmayı çok görüp, Random/Spam/Anlamsız mesajlar atarak forumu kirletip Mega linklerini açmaya çalışan kullanıcılara süresiz ban atacağız.

Premium Üyelik Al

Çılgın Hırsız 2 (Despicable Me 2) - 2013 - TR - BRRip XviD
BroserBros
Çılgın Hırsız 2 (Despicable Me 2) - 2013 - TR - BRRip XviD
3
310
  • Derecelendirme: 0/5 - 0 oy
  • 1
  • 2
  • 3
  • 4
  • 5
Konuyu Okuyanlar:2 Ziyaretçi
Şuan Online!
Filmin Yayınlanma Tarihi: 2013 
WWW
Şuan Online!
BroserBros Kurucu Admin
*******
Admin








 Çılgın Hırsız 2



Eski süper kötü Gru, suç dolu geçmişini bir kenara bırakır ve evlatlık edindiği kızları Margo, Edith ve Agnes ile birlikte sakin bir hayata adım atar. Gru, kurduğu işiyle ve ailesiyle vaktini geçirirken, bazı gizemli olaylar yaşanmaya başlar. Anti-Villain League isimli son derece gizli bir örgüt, Gru'yu tehlikeli bir olayı araştırması için göreve çağırır ve ona bu görevde Minyonlar'ın yanısıra bu organizasyonun en iyi  ajanı olan Lucy de yardım edecektir. Gru artık iyi adamlarla anlaşma imzalamış ve dünyanın kurtuluşu için mücadele eden birine dönüşmüştür. Lucy ile birlikte kötücül bir süper kötünün peşine düştükleri bu avda, çeşitli suçlularla da mücadele etmek zorunda kalacaklardır.

Çılgın Hırsız 2 (2013) (Despicable Me 2) Filmi Imdb'den 370,000 kişi tarafından oylandı ve 7,3 puan aldı. Bu film için editör puanı 7,8 olarak belirlendi. İyi Seyirler!

Teknik Detaylar

Kod :
General
Complete name                            : /root/Desktop/2/Cılgın.Hırsız.2.2013.BRRip.XviD.TR.Filmbol.avi
Format                                  : AVI
Format/Info                              : Audio Video Interleave
File size                                : 703 MiB
Duration                                : 1h 37mn
Overall bit rate                        : 1 003 Kbps
Writing application                      : VirtualDubMod 1.5.10.3 | www.virtualdub-fr.org || (build 2550/release)
Writing library                          : VirtualDubMod build 2550/release

Video
ID                                      : 0
Format                                  : MPEG-4 Visual
Format profile                          : Advanced [email protected]
Format settings, BVOP                    : 2
Format settings, QPel                    : No
Format settings, GMC                    : No warppoints
Format settings, Matrix                  : Default (H.263)
Codec ID                                : XVID
Codec ID/Hint                            : XviD
Duration                                : 1h 37mn
Bit rate                                : 865 Kbps
Width                                    : 640 pixels
Height                                  : 352 pixels
Display aspect ratio                    : 16:9
Frame rate                              : 23.976 (24000/1001) fps
Color space                              : YUV
Chroma subsampling                      : 4:2:0
Bit depth                                : 8 bits
Scan type                                : Progressive
Compression mode                        : Lossy
Bits/(Pixel*Frame)                      : 0.160
Stream size                              : 606 MiB (86%)
Writing library                          : XviD 1.2.1 (UTC 2008-12-04)

Audio
ID                                      : 1
Format                                  : MPEG Audio
Format version                          : Version 1
Format profile                          : Layer 3
Mode                                    : Joint stereo
Codec ID                                : 55
Codec ID/Hint                            : MP3
Duration                                : 1h 37mn
Bit rate mode                            : Constant
Bit rate                                : 128 Kbps
Channel(s)                              : 2 channels
Sampling rate                            : 48.0 KHz
Compression mode                        : Lossy
Stream size                              : 89.7 MiB (13%)
Alignment                                : Aligned on interleaves
Interleave, duration                    : 42 ms (1.00 video frame)
Interleave, preload duration            : 504 ms
Writing library                          : LAME3.99r
Encoding settings                        : -m j -V 4 -q 2 -lowpass 17 -b 128

Film Detayları


 Çılgın Hırsız 2

 Çılgın Hırsız 2

 Çılgın Hırsız 2


Film Fragmanı


Film Detayları



Zip Şifresi: filmbol.org Aşağıdaki butona tıklayarak kopyalabilirsiniz.



Uptobox ile indir

1Fichier ile indir

1Fichier'den İndiremiyor musun? Tıklayın!


Mega linki şuan da gizli. Kullanıma açmak için konuya yorum yapın ve ardından sayfayı yenileyin.

Mega


Bunun için üzgünüz ancak, bu linke sadece premium üyeler erişebilir.

Filmbol Cloud

Şuan Online!
Şuan Online!
BroserBros Kurucu Admin
*******
Admin

22.01.2021 Yönetici Notu:

Kırık linkler kontrol edildi, kaldırıldı ve yenilendi. Tüm linkler tamamen çalışır durumda.
Şuan Offine!
Şuan Offine!
rubsy Uzman Üye
**
Uzman Üye

  • Konular0
  • Mesajlar6
  • Rep puanı 0
güzel
Şuan Offine!
Şuan Offine!
Furkan61 Cezalı Üye

  • Konular0
  • Mesajlar329
eğlenceli ve komik bir film


Hızlı Menü: