Filmbol Forum Film İndir FHD - FULL HD v Transformers: Kayıp Çağ (Transformers: Age of Extinction) - 2014 - TR+ORG - FHD - x265-10Bit
Bildirimi Kapat
Üyelik alımları açıldı.


Bildirimi Kapat
Mega linklerinin şikayet edilmemesi için global erişime kapatıp sadece yorum yapanlara açıyoruz. Bu linkleri gizleme işlemini mecburen yapıyoruz ve yorum yapmanızın siteye değil size faydası vardır. Teşekkürler yazmayı çok görüp, Random/Spam/Anlamsız mesajlar atarak forumu kirletip Mega linklerini açmaya çalışan kullanıcılara süresiz ban atacağız.

Premium Üyelik Al

Transformers: Kayıp Çağ (Transformers: Age of Extinction) - 2014 - TR+ORG - FHD - x265-10Bit
BroserBros
Transformers: Kayıp Çağ (Transformers: Age of Extinction) - 2014 - TR+ORG - FHD - x265-10Bit
2
327
  • Derecelendirme: 0/5 - 0 oy
  • 1
  • 2
  • 3
  • 4
  • 5
Konuyu Okuyanlar:3 Ziyaretçi
Şuan Online!
Filmin Yayınlanma Tarihi: 2014 
WWW
Şuan Online!
BroserBros Kurucu Admin
*******
Admin








 Transformers: Kayıp Çağ



Autobot ve Decepticon'lar arasında yaşanan son savaşın ardından dört yıl geçer. Savaşta Chicago şehri yerle bir edilmiş ve binlerce insan öldürülmüş olsa da dünya ve insanlık büyük bir tehditten kurtulmuş olur. İnsanlık yaralarını sarmaya çalışırken Amerikan hükümeti de Autobotlar ile arasındaki ilişkiye iyice koparmış, hatta hayatta kalanları yok etmeleri için CIA'de özel bir birim dahi kurulmuştur. Teksas'ta kendi halinde bir tamirci olan Cade Yeager, eline geçen hasarlı bir kamyoneti, parçalarını satma umuduyla kabul eder. Ne var ki bu kamyonetin yaralı bir Optimus Prime'dan başkası olmadığını anlaması uzun sürmez. Optimus Prime'dan aldıkları sinyallerle yola çıkan CIA ajanlarıyla başının derde girmesi de çok yakındır. Cade Yeager bir şekilde Optimus Prime'ı Chicago'ya ulaştırmak ve diğer Autobotlar ile iletişime geçmesini sağlamak zorundadır. Zira dünyayı tehdit eden güçlü bir düşman yola çıkmak üzeredir. Optimus Prime ve Autobotlar, Cade Yeager başta olmak üzere kendilerine destek olan insan topluluğunun yardımıyla başlarına gelen en korkutucu düşmanla yüzleşmek zorundadır...

Transformers: Kayıp Çağ (2014) (Transformers: Age of Extinction) Filmi Imdb'den 300,000 kişi tarafından oylandı ve 5,6 puan aldı. Bu film için editör puanı 7,2 olarak belirlendi. İyi Seyirler!

Teknik Detaylar

Kod :
General
Unique ID                                : 339351094615037107826466028575304380783 (0xFF4CA4BAF8DED89858C74D7668BAF16F)
Complete name                            : /root/Desktop/7/Transformers.Kayıp.Çağ.2014.FHD.BluRay.x265.10Bit.TR.ENG.Filmbol.mkv
Format                                  : Matroska
Format version                          : Version 4 / Version 2
File size                                : 7.18 GiB
Duration                                : 2h 45mn
Overall bit rate                        : 6 226 Kbps
Movie name                              : Transformers: Kayıp Çağ - Transformers: Age of Extinction - 2014 | Filmbol.org
Encoded date                            : UTC 2020-05-29 17:49:35
Writing application                      : mkvmerge v8.8.0 ('Wind at my back') 64bit
Writing library                          : libebml v1.3.3 + libmatroska v1.4.4

Video
ID                                      : 1
Format                                  : HEVC
Format/Info                              : High Efficiency Video Coding
Format profile                          : Main [email protected]@Main
Codec ID                                : V_MPEGH/ISO/HEVC
Duration                                : 2h 45mn
Bit rate                                : 5 490 Kbps
Width                                    : 1 920 pixels
Height                                  : 800 pixels
Display aspect ratio                    : 2.40:1
Frame rate mode                          : Constant
Frame rate                              : 23.976 (24000/1001) fps
Color space                              : YUV
Chroma subsampling                      : 4:2:0
Bit depth                                : 10 bits
Bits/(Pixel*Frame)                      : 0.149
Stream size                              : 6.33 GiB (88%)
Title                                    : FHD - Filmbol.org
Writing library                          : x265 3.0_Au+24-4217e691387c:[Windows][GCC 9.1.1][64 bit] 10bit
Encoding settings                        : rc=crf / crf=21.5000 / qcomp=0.60 / qpstep=4 / stats-write=0 / stats-read=0 / qpmax=69 / qpmin=0 / no-lossless / no-cu-lossless / no-hevc-aq / no-aq-motion / aq-mode=3 / aq-strength=1.00 / cbqpoffs=0 / crqpoffs=0 / ipratio=1.40 / pbratio=1.30 / psy-rd=0.00 / psy-rdoq=1.00 / deblock=-2:-2 / ref=4 / limit-refs=3 / limit-modes / bframes=8 / b-adapt=2 / bframe-bias=20 / b-pyramid / no-b-intra / weightp / no-weightb / keyint=250 / min-keyint=23 / rc-lookahead=80 / gop-lookahead=0 / scenecut=40 / scenecut-bias=0.05 / ctu=64 / min-cu-size=8 / me=3 / subme=5 / merange=57 / rd=4 / no-rd-refine / ssim-rd / dynamic-rd=0.00 / rdoq-level=2 / rdpenalty=0 / cutree / sao / no-limit-sao / sao-non-deblock / rect / no-amp / open-gop / max-tu-size=32 / tu-inter-depth=1 / tu-intra-depth=1 / limit-tu=0 / qg-size=32 / wpp / no-pmode / no-pme / no-psnr / ssim / no-tskip / constrained-intra / strong-intra-smoothing / max-merge=5 / nr-intra=0 / nr-inter=0 / input-csp=1 / input-res=1920x800 / interlace=0 / total-frames=237537 / level-idc=0 / high-tier=1cpuid=1111039 / frame-threads=3 / numa-pools=12 / log-level=2 / uhd-bd=0 / lookahead-slices=4 / radl=0 / no-splice / no-intra-refresh / signhide / temporal-mvp / no-analyze-src-pics / early-skip / rskip / no-fast-intra / no-tskip-fast / no-splitrd-skip / zone-count=0 / no-strict-cbr / no-rc-grain / no-const-vbv / no-allow-non-conformance / no-repeat-headers / annexb / no-aud / no-hrd / info / hash=0 / no-temporal-layers / sar=0 / overscan=0 / videoformat=5 / range=0 / colorprim=2 / transfer=2 / colormatrix=2 / chromaloc=0 / display-window=0 / max-cll=0,0 / min-luma=0 / max-luma=1023 / log2-max-poc-lsb=8 / vui-timing-info / vui-hrd-info / slices=1 / no-opt-qp-pps / no-opt-ref-list-length-pps / no-multi-pass-opt-rps / no-opt-cu-delta-qp / no-hdr / no-hdr-opt / no-dhdr10-opt / no-idr-recovery-sei / analysis-reuse-level=5 / scale-factor=0 / refine-intra=0 / refine-inter=0 / refine-mv=0 / refine-ctu-distortion=0 / ctu-info=0 / no-lowpass-dct / refine-analysis-type=0 / copy-pic=1 / max-ausize-factor=1.0 / no-dynamic-refine / no-single-sei / no-svt / qp-adaptation-range=1.00
Default                                  : Yes
Forced                                  : No

Audio #1
ID                                      : 2
Format                                  : AC-3
Format/Info                              : Audio Coding 3
Mode extension                          : CM (complete main)
Format settings, Endianness              : Big
Codec ID                                : A_AC3
Duration                                : 2h 45mn
Bit rate mode                            : Constant
Bit rate                                : 640 Kbps
Channel(s)                              : 6 channels
Channel positions                        : Front: L C R, Side: L R, LFE
Sampling rate                            : 48.0 KHz
Frame rate                              : 31.250 fps (1536 spf)
Compression mode                        : Lossy
Stream size                              : 756 MiB (10%)
Title                                    : Türkçe - Filmbol.org
Language                                : Turkish
Default                                  : Yes
Forced                                  : Yes

Audio #2
ID                                      : 3
Format                                  : AAC
Format/Info                              : Advanced Audio Codec
Format profile                          : LC
Codec ID                                : A_AAC
Duration                                : 2h 45mn
Bit rate                                : 93.7 Kbps
Channel(s)                              : 2 channels
Channel positions                        : Front: L R
Sampling rate                            : 48.0 KHz
Frame rate                              : 46.875 fps (1024 spf)
Compression mode                        : Lossy
Stream size                              : 111 MiB (2%)
Title                                    : İngilizce - Filmbol.org
Language                                : English
Default                                  : No
Forced                                  : No

Text
ID                                      : 4
Format                                  : UTF-8
Codec ID                                : S_TEXT/UTF8
Codec ID/Info                            : UTF-8 Plain Text
Duration                                : 2h 36mn
Bit rate                                : 65 bps
Count of elements                        : 1889
Stream size                              : 74.9 KiB (0%)
Language                                : Turkish
Default                                  : No
Forced                                  : No

Film Detayları


 Transformers: Kayıp Çağ

 Transformers: Kayıp Çağ

 Transformers: Kayıp Çağ


Film Fragmanı


Film Detayları



Zip Şifresi: filmbol.org Aşağıdaki butona tıklayarak kopyalabilirsiniz.


Mega linki şuan da gizli. Kullanıma açmak için konuya yorum yapın ve ardından sayfayı yenileyin.

Mega


Bunun için üzgünüz ancak, bu linke sadece premium üyeler erişebilir.

Filmbol Cloud

Şuan Offine!
Şuan Offine!
Eray Ayar Yeni Üye
*
Üye

  • Konular0
  • Mesajlar2
  • Rep puanı 0
Güzeldi

Güzel film ama imbd puanı çok düşük
Şuan Online!
Şuan Online!
Eray 6161 Yeni Üye
*
Üye

  • Konular0
  • Mesajlar2
  • Rep puanı 0
Beklenti yüksek olduğu için

Güzel film bence


Hızlı Menü: