Filmbol Forum Film İndir BRRip XviD v Justice League Dark: Apokolips War (Adalet Birliği) - 2020 - TR - BRRip XviD
Bildirimi Kapat
Üyelik alımları açıldı.


Bildirimi Kapat
Mega linklerinin şikayet edilmemesi için global erişime kapatıp sadece yorum yapanlara açıyoruz. Bu linkleri gizleme işlemini mecburen yapıyoruz ve yorum yapmanızın siteye değil size faydası vardır. Teşekkürler yazmayı çok görüp, Random/Spam/Anlamsız mesajlar atarak forumu kirletip Mega linklerini açmaya çalışan kullanıcılara süresiz ban atacağız.

Premium Üyelik Al

Justice League Dark: Apokolips War (Adalet Birliği) - 2020 - TR - BRRip XviD
BroserBros
Justice League Dark: Apokolips War (Adalet Birliği) - 2020 - TR - BRRip XviD
1
268
  • Derecelendirme: 0/5 - 0 oy
  • 1
  • 2
  • 3
  • 4
  • 5
Konuyu Okuyanlar:1 Ziyaretçi
Şuan Online!
Filmin Yayınlanma Tarihi: 2020 
WWW
Şuan Online!
BroserBros Kurucu Admin
*******
Admin








 Justice League Dark: Apokolips War



Justice League Dark animasyon filminin devam filminde DC tarihinin en fazla karakter içeren yapımı bir animasyon filmi olarak geliyor ve bu animasyon için beklentiler bir hayli yüksek durumda.

Justice League Dark: Apokolips War (2020) (Adalet Birliği) Filmi Imdb'den 10,000 kişi tarafından oylandı ve 7,9 puan aldı. Bu film için editör puanı 6,7 olarak belirlendi. İyi Seyirler!

Teknik Detaylar

Kod :
General
Complete name                            : /root/Desktop/1/Rituel.2019.BRRip.XViD.TR.Filmbol.avi
Format                                  : AVI
Format/Info                              : Audio Video Interleave
File size                                : 1.63 GiB
Duration                                : 2h 27mn
Overall bit rate                        : 1 582 Kbps

Video
ID                                      : 0
Format                                  : MPEG-4 Visual
Format profile                          : Advanced [email protected]
Format settings, BVOP                    : 2
Format settings, QPel                    : No
Format settings, GMC                    : No warppoints
Format settings, Matrix                  : Default (MPEG)
Codec ID                                : XVID
Codec ID/Hint                            : XviD
Duration                                : 2h 27mn
Bit rate                                : 1 441 Kbps
Width                                    : 720 pixels
Height                                  : 360 pixels
Display aspect ratio                    : 2.000
Frame rate                              : 23.976 (23976/1000) fps
Color space                              : YUV
Chroma subsampling                      : 4:2:0
Bit depth                                : 8 bits
Scan type                                : Progressive
Compression mode                        : Lossy
Bits/(Pixel*Frame)                      : 0.232
Stream size                              : 1.48 GiB (91%)
Writing library                          : XviD 64

Audio
ID                                      : 1
Format                                  : MPEG Audio
Format version                          : Version 1
Format profile                          : Layer 3
Mode                                    : Joint stereo
Mode extension                          : MS Stereo
Codec ID                                : 55
Codec ID/Hint                            : MP3
Duration                                : 2h 27mn
Bit rate mode                            : Constant
Bit rate                                : 128 Kbps
Channel(s)                              : 2 channels
Sampling rate                            : 48.0 KHz
Compression mode                        : Lossy
Stream size                              : 135 MiB (8%)
Alignment                                : Aligned on interleaves
Interleave, duration                    : 24 ms (0.58 video frame)

Film Detayları


 Justice League Dark: Apokolips War

 Justice League Dark: Apokolips War

 Justice League Dark: Apokolips War


Film Fragmanı


Film Detayları



Zip Şifresi: filmbol.org Aşağıdaki butona tıklayarak kopyalabilirsiniz.



Uptobox ile indir

1Fichier ile indir

1Fichier'den İndiremiyor musun? Tıklayın!


Mega linki şuan da gizli. Kullanıma açmak için konuya yorum yapın ve ardından sayfayı yenileyin.

Mega


Bunun için üzgünüz ancak, bu linke sadece premium üyeler erişebilir.

Filmbol Cloud

Şuan Online!
Şuan Online!
BroserBros Kurucu Admin
*******
Admin

24.01.2021 Yönetici Notu:

Kırık linkler kontrol edildi, kaldırıldı ve yenilendi. Tüm linkler tamamen çalışır durumda.


Hızlı Menü: