Filmbol Forum Film İndir 720P v Arabalar (Cars) - 2006 - TR+ORG - 720P
Bildirimi Kapat
Üyelik alımları açıldı.


Bildirimi Kapat
Mega linklerinin şikayet edilmemesi için global erişime kapatıp sadece yorum yapanlara açıyoruz. Bu linkleri gizleme işlemini mecburen yapıyoruz ve yorum yapmanızın siteye değil size faydası vardır. Teşekkürler yazmayı çok görüp, Random/Spam/Anlamsız mesajlar atarak forumu kirletip Mega linklerini açmaya çalışan kullanıcılara süresiz ban atacağız.

Premium Üyelik Al

Arabalar (Cars) - 2006 - TR+ORG - 720P
BroserBros
Arabalar (Cars) - 2006 - TR+ORG - 720P
2
463
  • Derecelendirme: 0/5 - 0 oy
  • 1
  • 2
  • 3
  • 4
  • 5
Konuyu Okuyanlar:4 Ziyaretçi
Şuan Online!
Filmin Yayınlanma Tarihi: 2006 
WWW
Şuan Online!
BroserBros Kurucu Admin
*******
Admin








 Arabalar



Hedefinde Piston Kupası olan genç yarış arabası Şimşek McQueen ilk yarışı başarılı bir şekilde bitirmiştir ve ikinci tura katılmaya hak kazanmıştır. Turnavının ikinci yarışında McQueen bir kaza sonucu onu taşıyan tırdan düşer. Gece yolunu bulamayan Şimşek yanlış yere doğru gider ve kendini ismini bilmediği bir kasabada bulur. Üstelik gece yanlışlıkla kasabanın yollarına zarar vermiştir ve şerif onu yolları tekrar eski haline getirmesi ile cezalandırır. Burada cezasını çekerken de bir yandan benliğini bulurken bir yandan da aşkını bulacaktır.

Arabalar (2006) (Cars) Filmi Imdb'den 360,000 kişi tarafından oylandı ve 7,1 puan aldı. Bu film için editör puanı 8,3 olarak belirlendi. İyi Seyirler!

Teknik Detaylar

Kod :
General
Unique ID                                : 158421569282743697742067749950240044397 (0x772EE268D08FD85505CA186AEA13B56D)
Complete name                            : /root/Desktop/4/Arabalar.2006.BluRay.720p.x264.TR.ENG.Filmbol.mkv
Format                                  : Matroska
Format version                          : Version 4 / Version 2
File size                                : 1.11 GiB
Duration                                : 1h 56mn
Overall bit rate                        : 1 360 Kbps
Movie name                              : Arabalar - Cars - 2006 | Filmbol.org
Encoded date                            : UTC 2020-05-17 11:48:39
Writing application                      : mkvmerge v8.8.0 ('Wind at my back') 64bit
Writing library                          : libebml v1.3.3 + libmatroska v1.4.4

Video
ID                                      : 1
Format                                  : AVC
Format/Info                              : Advanced Video Codec
Format profile                          : [email protected]
Format settings, CABAC                  : Yes
Format settings, ReFrames                : 5 frames
Codec ID                                : V_MPEG4/ISO/AVC
Duration                                : 1h 56mn
Bit rate                                : 687 Kbps
Width                                    : 1 280 pixels
Height                                  : 528 pixels
Display aspect ratio                    : 2.40:1
Frame rate mode                          : Constant
Frame rate                              : 23.976 (24000/1001) fps
Color space                              : YUV
Chroma subsampling                      : 4:2:0
Bit depth                                : 8 bits
Scan type                                : Progressive
Bits/(Pixel*Frame)                      : 0.042
Stream size                              : 572 MiB (50%)
Title                                    : 720P - Filmbol.org
Writing library                          : x264 core 116 r2074 2641b9e
Encoding settings                        : cabac=1 / ref=5 / deblock=1:-2:-1 / analyse=0x3:0x113 / me=umh / subme=8 / psy=1 / psy_rd=1.00:0.00 / mixed_ref=1 / me_range=16 / chroma_me=1 / trellis=1 / 8x8dct=1 / cqm=0 / deadzone=21,11 / fast_pskip=1 / chroma_qp_offset=-2 / threads=9 / sliced_threads=0 / nr=0 / decimate=1 / interlaced=0 / bluray_compat=0 / constrained_intra=0 / bframes=3 / b_pyramid=2 / b_adapt=2 / b_bias=0 / direct=3 / weightb=1 / open_gop=0 / weightp=2 / keyint=250 / keyint_min=23 / scenecut=40 / intra_refresh=0 / rc_lookahead=50 / rc=2pass / mbtree=1 / bitrate=687 / ratetol=1.0 / qcomp=0.60 / qpmin=10 / qpmax=51 / qpstep=4 / cplxblur=20.0 / qblur=0.5 / ip_ratio=1.40 / aq=1:1.00
Default                                  : Yes
Forced                                  : No

Audio #1
ID                                      : 2
Format                                  : AC-3
Format/Info                              : Audio Coding 3
Mode extension                          : CM (complete main)
Format settings, Endianness              : Big
Codec ID                                : A_AC3
Duration                                : 1h 56mn
Bit rate mode                            : Constant
Bit rate                                : 640 Kbps
Channel(s)                              : 6 channels
Channel positions                        : Front: L C R, Side: L R, LFE
Sampling rate                            : 48.0 KHz
Frame rate                              : 31.250 fps (1536 spf)
Compression mode                        : Lossy
Stream size                              : 534 MiB (47%)
Title                                    : Türkçe - Filmbol.org
Default                                  : Yes
Forced                                  : Yes

Audio #2
ID                                      : 3
Format                                  : AAC
Format/Info                              : Advanced Audio Codec
Format profile                          : HE-AACv2 / HE-AAC / LC
Codec ID                                : A_AAC
Duration                                : 1h 56mn
Bit rate                                : 32.0 Kbps
Channel(s)                              : 2 channels / 21 channels / 21 channels
Channel positions                        : Front: L R / Front: 17, Back: 4 / Front: 17, Back: 4
Sampling rate                            : 48.0 KHz / 48.0 KHz / 24.0 KHz
Frame rate                              : 23.438 fps (1024 spf)
Compression mode                        : Lossy
Stream size                              : 26.7 MiB (2%)
Title                                    : Ingilizce
Language                                : English
Default                                  : No
Forced                                  : No

Text
ID                                      : 4
Format                                  : UTF-8
Codec ID                                : S_TEXT/UTF8
Codec ID/Info                            : UTF-8 Plain Text
Duration                                : 1h 55mn
Bit rate                                : 72 bps
Count of elements                        : 1527
Stream size                              : 61.5 KiB (0%)
Title                                    : Türkçe Altyazı - Filmbol.org
Default                                  : Yes
Forced                                  : No

Film Detayları


 Arabalar

 Arabalar

 Arabalar


Film Fragmanı


Film Detayları



Zip Şifresi: filmbol.org Aşağıdaki butona tıklayarak kopyalabilirsiniz.


Uptobox ile indir

1Fichier ile indir

1Fichier'den İndiremiyor musun? Tıklayın!


Mega linki şuan da gizli. Kullanıma açmak için konuya yorum yapın ve ardından sayfayı yenileyin.

Mega


Bunun için üzgünüz ancak, bu linke sadece premium üyeler erişebilir.

Filmbol Cloud

Şuan Online!
Şuan Online!
BroserBros Kurucu Admin
*******
Admin

27.01.2021 Yönetici Notu:

Kırık linkler kontrol edildi, kaldırıldı ve yenilendi. Tüm linkler tamamen çalışır durumda.
Şuan Offine!
Şuan Offine!
uchihasalata Yeni Üye
*
Üye

  • Konular0
  • Mesajlar3
  • Rep puanı 0
güzel


Hızlı Menü: