Filmbol Forum Film İndir FHD - FULL HD v Denizin Ortasında (In the Heart of the Sea) - 2015 - TR+ORG - FHD - 10Bit - x265
Bildirimi Kapat
Üyelik alımları açıldı.


Bildirimi Kapat
Mega linklerinin şikayet edilmemesi için global erişime kapatıp sadece yorum yapanlara açıyoruz. Bu linkleri gizleme işlemini mecburen yapıyoruz ve yorum yapmanızın siteye değil size faydası vardır. Teşekkürler yazmayı çok görüp, Random/Spam/Anlamsız mesajlar atarak forumu kirletip Mega linklerini açmaya çalışan kullanıcılara süresiz ban atacağız.

Premium Üyelik Al

Denizin Ortasında (In the Heart of the Sea) - 2015 - TR+ORG - FHD - 10Bit - x265
BroserBros
Denizin Ortasında (In the Heart of the Sea) - 2015 - TR+ORG - FHD - 10Bit - x265
1
296
  • Derecelendirme: 0/5 - 0 oy
  • 1
  • 2
  • 3
  • 4
  • 5
Konuyu Okuyanlar:1 Ziyaretçi
Şuan Online!
Filmin Yayınlanma Tarihi: 2015 
WWW
Şuan Online!
BroserBros Kurucu Admin
*******
Admin








 Denizin Ortasında



Nantucked ismindeki bir gemi, pasifik okyanusunun kalbine balina avcılığı için gidiyor. Ancak bu okyanus o kadar da sakin değil ve balinaları da sanıldığı kadar ufak değil. İspermeçet balinası onları burada istemediği için saldırıyor ve bu saldırı sonucunda gemi alabora oluyor. Sonucunda ise sadece 8 kişi hayatta kalıyor ve filmde onların amansız hayatta kalma mücadelesine şahit oluyoruz..

Denizin Ortasında (2015) (In the Heart of the Sea) Filmi Imdb'den 116,000 kişi tarafından oylandı ve 6,9 puan aldı. Bu film için editör puanı 7,3 olarak belirlendi. İyi Seyirler!

Teknik Detaylar

Kod :
General
Unique ID                                : 130458831504351674334170397168045471687 (0x622574FEA231D7C7C972A3CD14CD37C7)
Complete name                            : /root/Desktop/3/Denizin.Ortasında.2015.1080p.BluRay.x264.TR.ENG.Filmbol.mkv
Format                                  : Matroska
Format version                          : Version 4 / Version 2
File size                                : 2.03 GiB
Duration                                : 2h 1mn
Overall bit rate                        : 2 384 Kbps
Movie name                              : Denizin Ortasında - In The Heart of The Sea - 2015 | Filmbol.org
Encoded date                            : UTC 2020-05-17 11:18:26
Writing application                      : mkvmerge v8.8.0 ('Wind at my back') 64bit
Writing library                          : libebml v1.3.3 + libmatroska v1.4.4

Video
ID                                      : 1
Format                                  : AVC
Format/Info                              : Advanced Video Codec
Format profile                          : [email protected]
Format settings, CABAC                  : Yes
Format settings, ReFrames                : 4 frames
Codec ID                                : V_MPEG4/ISO/AVC
Duration                                : 2h 1mn
Bit rate                                : 2 050 Kbps
Width                                    : 1 920 pixels
Height                                  : 1 072 pixels
Display aspect ratio                    : 16:9
Frame rate mode                          : Constant
Frame rate                              : 23.976 fps
Color space                              : YUV
Chroma subsampling                      : 4:2:0
Bit depth                                : 8 bits
Scan type                                : Progressive
Bits/(Pixel*Frame)                      : 0.042
Stream size                              : 1.74 GiB (86%)
Title                                    : 1080P - Filmbol.org
Writing library                          : x264 core 148
Encoding settings                        : cabac=1 / ref=4 / deblock=1:-1:-1 / analyse=0x3:0x133 / me=umh / subme=9 / psy=1 / psy_rd=1.00:0.15 / mixed_ref=1 / me_range=24 / chroma_me=1 / trellis=2 / 8x8dct=1 / cqm=0 / deadzone=21,11 / fast_pskip=0 / chroma_qp_offset=-3 / threads=12 / lookahead_threads=1 / sliced_threads=0 / nr=0 / decimate=1 / interlaced=0 / bluray_compat=0 / constrained_intra=0 / bframes=3 / b_pyramid=2 / b_adapt=2 / b_bias=0 / direct=3 / weightb=1 / open_gop=0 / weightp=2 / keyint=250 / keyint_min=23 / scenecut=40 / intra_refresh=0 / rc_lookahead=60 / rc=2pass / mbtree=1 / bitrate=2050 / ratetol=1.0 / qcomp=0.60 / qpmin=0 / qpmax=69 / qpstep=4 / cplxblur=20.0 / qblur=0.5 / vbv_maxrate=31250 / vbv_bufsize=31250 / nal_hrd=none / filler=0 / ip_ratio=1.40 / aq=1:1.00
Default                                  : Yes
Forced                                  : No

Audio #1
ID                                      : 2
Format                                  : AC-3
Format/Info                              : Audio Coding 3
Mode extension                          : CM (complete main)
Format settings, Endianness              : Big
Codec ID                                : A_AC3
Duration                                : 2h 1mn
Bit rate mode                            : Constant
Bit rate                                : 192 Kbps
Channel(s)                              : 2 channels
Channel positions                        : Front: L R
Sampling rate                            : 48.0 KHz
Frame rate                              : 31.250 fps (1536 spf)
Compression mode                        : Lossy
Stream size                              : 167 MiB (8%)
Title                                    : Türkçe - Filmbol.org
Default                                  : Yes
Forced                                  : Yes

Audio #2
ID                                      : 3
Format                                  : AAC
Format/Info                              : Advanced Audio Codec
Format profile                          : LC
Codec ID                                : A_AAC
Duration                                : 2h 1mn
Bit rate                                : 141 Kbps
Channel(s)                              : 2 channels
Channel positions                        : Front: L R
Sampling rate                            : 48.0 KHz
Frame rate                              : 46.875 fps (1024 spf)
Compression mode                        : Lossy
Stream size                              : 122 MiB (6%)
Title                                    : İngilizce - Filmbol.org
Default                                  : No
Forced                                  : No

Text
ID                                      : 4
Format                                  : UTF-8
Codec ID                                : S_TEXT/UTF8
Codec ID/Info                            : UTF-8 Plain Text
Duration                                : 1h 51mn
Bit rate                                : 46 bps
Count of elements                        : 959
Stream size                              : 38.4 KiB (0%)
Title                                    : Türkçe Altyazı - Filmbol.org
Default                                  : No
Forced                                  : No

Film Detayları


 Denizin Ortasında

 Denizin Ortasında

 Denizin Ortasında


Film Fragmanı


Film Detayları



Zip Şifresi: filmbol.org Aşağıdaki butona tıklayarak kopyalabilirsiniz.


Mega linki şuan da gizli. Kullanıma açmak için konuya yorum yapın ve ardından sayfayı yenileyin.

Mega


Bunun için üzgünüz ancak, bu linke sadece premium üyeler erişebilir.

Filmbol Cloud

Şuan Online!
Şuan Online!
ahmettepe Yeni Üye
*
Üye

  • Konular0
  • Mesajlar59
  • Rep puanı 1
teşekkürler


Hızlı Menü: