Filmbol Forum Film İndir BRRip XviD v Karanlıklar Ülkesi: Kan Savaşları (Underworld: Blood Wars) - 2016 - TR - BRRip XviD
Bildirimi Kapat
Üyelik alımları açıldı.


Bildirimi Kapat
Mega linklerinin şikayet edilmemesi için global erişime kapatıp sadece yorum yapanlara açıyoruz. Bu linkleri gizleme işlemini mecburen yapıyoruz ve yorum yapmanızın siteye değil size faydası vardır. Teşekkürler yazmayı çok görüp, Random/Spam/Anlamsız mesajlar atarak forumu kirletip Mega linklerini açmaya çalışan kullanıcılara süresiz ban atacağız.

Premium Üyelik Al

Karanlıklar Ülkesi: Kan Savaşları (Underworld: Blood Wars) - 2016 - TR - BRRip XviD
BroserBros
Karanlıklar Ülkesi: Kan Savaşları (Underworld: Blood Wars) - 2016 - TR - BRRip XviD
1
294
  • Derecelendirme: 0/5 - 0 oy
  • 1
  • 2
  • 3
  • 4
  • 5
Konuyu Okuyanlar:1 Ziyaretçi
Şuan Online!
Filmin Yayınlanma Tarihi: 2016 
WWW
Şuan Online!
BroserBros Kurucu Admin
*******
Admin








 Karanlıklar Ülkesi: Kan Savaşları



Selene çok güçlü bir Lycan olmasına rağmen, kendi ırkı tarafından ihaneti uğrar ve serinin bu filmine Selene hem vampirlere hemde Lycanlara karşı savaşmak zorundadır. David Selene tarafında yer alsa da Selenenin savaşı kazanabilmek için büyük fedakarlıklar yapması gerekmektedir...

Karanlıklar Ülkesi: Kan Savaşları (2016) (Underworld: Blood Wars) Filmi Imdb'den 70,000 kişi tarafından oylandı ve 5,8 puan aldı. Bu film için editör puanı 6,3 olarak belirlendi. İyi Seyirler!

Teknik Detaylar

Kod :
General
Complete name                            : /root/Desktop/6/Karanlıklar.Ülkesi.Kan.Savaşları.2016.BRRip.XviD.TR.Filmbol.avi
Format                                  : AVI
Format/Info                              : Audio Video Interleave
File size                                : 1.02 GiB
Duration                                : 1h 31mn
Overall bit rate                        : 1 589 Kbps
Writing application                      : VirtualDubMod 1.5.10.2 (build 2542/release) VirtualDubMod build 2542/release

Video
ID                                      : 0
Format                                  : MPEG-4 Visual
Format profile                          : Advanced [email protected]
Format settings, BVOP                    : 2
Format settings, QPel                    : No
Format settings, GMC                    : No warppoints
Format settings, Matrix                  : Default (H.263)
Muxing mode                              : Packed bitstream
Codec ID                                : XVID
Codec ID/Hint                            : XviD
Duration                                : 1h 31mn
Bit rate                                : 1 451 Kbps
Width                                    : 720 pixels
Height                                  : 304 pixels
Display aspect ratio                    : 2.35:1
Frame rate                              : 23.976 (23976/1000) fps
Color space                              : YUV
Chroma subsampling                      : 4:2:0
Bit depth                                : 8 bits
Scan type                                : Progressive
Compression mode                        : Lossy
Bits/(Pixel*Frame)                      : 0.277
Stream size                              : 950 MiB (91%)
Writing library                          : XviD 66

Audio
ID                                      : 1
Format                                  : MPEG Audio
Format version                          : Version 1
Format profile                          : Layer 3
Mode                                    : Joint stereo
Mode extension                          : MS Stereo
Codec ID                                : 55
Codec ID/Hint                            : MP3
Duration                                : 1h 31mn
Bit rate mode                            : Constant
Bit rate                                : 128 Kbps
Channel(s)                              : 2 channels
Sampling rate                            : 48.0 KHz
Compression mode                        : Lossy
Stream size                              : 83.8 MiB (8%)
Alignment                                : Split accross interleaves
Interleave, duration                    : 42 ms (1.00 video frame)
Interleave, preload duration            : 500 ms
Language                                : Undefined

Film Detayları


 Karanlıklar Ülkesi: Kan Savaşları

 Karanlıklar Ülkesi: Kan Savaşları

 Karanlıklar Ülkesi: Kan Savaşları


Film Fragmanı


Film Detayları



Zip Şifresi: filmbol.org Aşağıdaki butona tıklayarak kopyalabilirsiniz.



Uptobox ile indir

1Fichier ile indir

1Fichier'den İndiremiyor musun? Tıklayın!


Mega linki şuan da gizli. Kullanıma açmak için konuya yorum yapın ve ardından sayfayı yenileyin.

Mega


Bunun için üzgünüz ancak, bu linke sadece premium üyeler erişebilir.

Filmbol Cloud

Şuan Online!
Şuan Online!
BroserBros Kurucu Admin
*******
Admin

28.01.2021 Yönetici Notu:

Kırık linkler kontrol edildi, kaldırıldı ve yenilendi. Tüm linkler tamamen çalışır durumda.


Hızlı Menü: