Filmbol Forum Film İndir BRRip XviD v Yüzüklerin Efendisi: İki Kule (The Lord of the Rings: The Two Towers) - 2002 - TR - BRRip XviD | tt0167261
Mega linklerinin şikayet edilmemesi için global erişime kapatıp sadece yorum yapanlara açıyoruz. Bu linkleri gizleme işlemini mecburen yapıyoruz ve yorum yapmanızın siteye değil size faydası vardır. Teşekürler yazmayı çok görüp, Random/Spam mesajlar atarak Mega linklerini açmaya çalışan kullanıcılara önce süresiz ban, devam ederse IP ban atacağız.
Filmbol'da moderatör olmak ister misiniz? Bizimle iletişime geçmek için tıklayın!
Yüzüklerin Efendisi: İki Kule (The Lord of the Rings: The Two Towers) - 2002 - TR - BRRip XviD | tt0167261
BroserBros
Yüzüklerin Efendisi: İki Kule (The Lord of the Rings: The Two Towers) - 2002 - TR - BRRip XviD | tt0167261
5
3172
  • Derecelendirme: 0/5 - 0 oy
  • 1
  • 2
  • 3
  • 4
  • 5
Konuyu Okuyanlar:1 Ziyaretçi
Şuan Online!
Filmin Yayınlanma Tarihi: 2002 
WWW
Şuan Online!
BroserBros Kurucu Admin
*******
Admin



 Yüzüklerin Efendisi: İki Kule



İkinci film ise ilkinin kaldığı yerden devam ediyor. Yüzüklerin Efendisi üçlemesinin bu bölümünde, Yüzük Kardeşliği üyelerinin her birinin, kardeşlik bozulduktan sonra başlarına gelenler anlatılıyor. Kahramanlarımız, gruplar halinde Orta Dünya’nın en tehlikeli yerlerinde maceralar yaşayacaklar, yeni kavimler ve çoktan unutulmuş medeniyetlerle tanışacaklar.

Yüzüklerin Efendisi: İki Kule (2002) (The Lord of the Rings: The Two Towers) | tt0167261 Filmi Imdb'den 1,550,000 kişi tarafından oylandı ve 8,7 puan aldı. Bu film için editör puanı %90 olarak belirlendi. İyi Seyirler!

Teknik Detaylar

Kod :
General
Unique ID                                : 299356196316076502307239985070569783121 (0xE135E8002694915CEFC91F45E9617F51)
Complete name                            : /home/BroserBros/Desktop/4/Yüzüklerin.Efendisi.İki.Kule.2002.BRRip.XviD.TR.Filmbol.avi
Format                                   : Matroska
Format version                           : Version 4
File size                                : 1.35 GiB
Duration                                 : 2 h 59 min
Overall bit rate                         : 1 079 kb/s
Movie name                               : Yüzüklerin Efendisi: İki Kule - The Lord of the Rings: The Two Towers - 2002 | Filmbol.org
Encoded date                             : UTC 2021-04-26 09:36:20
Writing application                      : mkvmerge v53.0.0 ('Fool's Gold') 64-bit
Writing library                          : libebml v1.4.1 + libmatroska v1.6.2
FileExtension_Invalid                    : mkv mk3d mka mks

Video
ID                                       : 1
Format                                   : MPEG-4 Visual
Format profile                           : Advanced [email protected]
Format settings                          : BVOP2
Format settings, BVOP                    : 2
Format settings, QPel                    : No
Format settings, GMC                     : No warppoints
Format settings, Matrix                  : Default (MPEG)
Codec ID                                 : V_MS/VFW/FOURCC / XVID
Codec ID/Hint                            : XviD
Duration                                 : 2 h 59 min
Bit rate                                 : 950 kb/s
Width                                    : 656 pixels
Height                                   : 272 pixels
Display aspect ratio                     : 2.40:1
Frame rate mode                          : Constant
Frame rate                               : 23.976 (23976/1000) FPS
Color space                              : YUV
Chroma subsampling                       : 4:2:0
Bit depth                                : 8 bits
Scan type                                : Progressive
Compression mode                         : Lossy
Bits/(Pixel*Frame)                       : 0.222
Stream size                              : 1.19 GiB (88%)
Title                                    : Yüzüklerin Efendisi: İki Kule - The Lord of the Rings: The Two Towers - 2002 | Filmbol.org
Writing library                          : XviD 1.2.1 (UTC 2008-12-04)
Default                                  : Yes
Forced                                   : No

Audio
ID                                       : 2
Format                                   : MPEG Audio
Format version                           : Version 1
Format profile                           : Layer 3
Format settings                          : Joint stereo / MS Stereo
Codec ID                                 : A_MPEG/L3
Codec ID/Hint                            : MP3
Duration                                 : 2 h 59 min
Bit rate mode                            : Constant
Bit rate                                 : 128 kb/s
Channel(s)                               : 2 channels
Sampling rate                            : 48.0 kHz
Frame rate                               : 41.667 FPS (1152 SPF)
Compression mode                         : Lossy
Stream size                              : 164 MiB (12%)
Title                                    : Yüzüklerin Efendisi: İki Kule - The Lord of the Rings: The Two Towers - 2002 | Filmbol.org
Default                                  : Yes
Forced                                   : No

Film Detayları


 Yüzüklerin Efendisi: İki Kule

 Yüzüklerin Efendisi: İki Kule

 Yüzüklerin Efendisi: İki Kule


Film Fragmanı


Film Detayları


Uptobox ile indir

1Fichier ile indir

1Fichier'den İndiremiyor musun? Tıklayın!


Mega linki şuan da gizli. Kullanıma açmak için konuya yorum yapın ve ardından sayfayı yenileyin.

Mega


Bunun için üzgünüz ancak, bu linke sadece premium üyeler erişebilir.

Filmbol Cloud





Şuan Offine!
Şuan Offine!
haytoki1 Uzman Üye
**
Uzman Üye

  • Konular0
  • Mesajlar18
  • Rep puanı 0
güzel
Şuan Online!
Şuan Online!
BroserBros Kurucu Admin
*******
Admin

14.12.2019 Güncelleme Notu:

Linkler yenilendi. Kırık linkler kaldırıldı ve Genel Konu Düzenlemesi Yapıldı
Şuan Offine!
Şuan Offine!
ErenDB Yeni Üye
*
Üye

  • Konular0
  • Mesajlar1
  • Rep puanı 0
Güzel ve hoş bir film
Şuan Offine!
Şuan Offine!
Ap0calypse Süper Üye
***
Super Üye

  • Konular0
  • Mesajlar39
  • Rep puanı 0
eline sağlık
Şuan Online!
Şuan Online!
BroserBros Kurucu Admin
*******
Admin

27.04.2021 Yönetici Notu:

Kırık linkler kontrol edildi, kaldırıldı ve yenilendi. Tüm linkler tamamen çalışır durumda.


Konu ile Alakalı Benzer Konular
Konular Yazar Yorumlar Okunma Son Yorum
Filmin Yayınlanma Tarihi: 2019
Ölü Nöbeti (The Vigil) - 2019 - TR - BRRip XviD | tt10793644 TheSteeL 6 77 5 saat önce
Son Yorum: TheSteeL
Filmin Yayınlanma Tarihi: 2018
Han Solo: Bir Star Wars Hikâyesi (Solo: A Star Wars Story) - 2018 - TR - BRRip XviD | tt3778644 BroserBros 2 443 , Saat: 11:46
Son Yorum: Furkan61
Filmin Yayınlanma Tarihi: 2015
Yıldız Savaşları 7: Güç Uyanıyor (Star Wars: Episode VII - The Force Awakens) - 2015 - TR - BRRip XviD | tt2488496 BroserBros 8 2,191 , Saat: 11:45
Son Yorum: Furkan61
Filmin Yayınlanma Tarihi: 1983
Yıldız Savaşları 6: Jedi'ın Dönüşü (Star Wars: Episode VI - Return of the Jedi) - 1983 - TR - BRRip XviD | tt0086190 BroserBros 8 1,800 , Saat: 11:43
Son Yorum: Furkan61
Filmin Yayınlanma Tarihi: 1980
Yıldız Savaşları 5: İmparator (Star Wars: Episode V - The Empire Strikes Back) - 1980 - TR - BRRip XviD | tt0080684 BroserBros 6 1,785 , Saat: 11:36
Son Yorum: Furkan61

Hızlı Menü: