Filmbol Forum Film İndir 1080P v Senden Beş Adım Uzakta (Five Feet Apart) - 2019 - TR - 1080P
Bildirimi Kapat
Üyelik alımları açıldı.


Bildirimi Kapat
Mega linklerinin şikayet edilmemesi için global erişime kapatıp sadece yorum yapanlara açıyoruz. Bu linkleri gizleme işlemini mecburen yapıyoruz ve yorum yapmanızın siteye değil size faydası vardır. Teşekkürler yazmayı çok görüp, Random/Spam/Anlamsız mesajlar atarak forumu kirletip Mega linklerini açmaya çalışan kullanıcılara süresiz ban atacağız.

Premium Üyelik Al

Senden Beş Adım Uzakta (Five Feet Apart) - 2019 - TR - 1080P
BroserBros
Senden Beş Adım Uzakta (Five Feet Apart) - 2019 - TR - 1080P
2
396
  • Derecelendirme: 0/5 - 0 oy
  • 1
  • 2
  • 3
  • 4
  • 5
Konuyu Okuyanlar:2 Ziyaretçi
Şuan Online!
Filmin Yayınlanma Tarihi: 2019 
WWW
Şuan Online!
BroserBros Kurucu Admin
*******
Admin








 Senden Beş Adım Uzakta



Five Feet Apart, iki hasta gencin hastanede yollarının kesişmesi ile değişen yaşamlarını konu ediyor. Stella Grant, 17 yaşında olan bir genç kızdır. Bilgisayarına bağlı bir hayat süren Stella, yaşıtları gibi gezip dolaşmak yerine zamanını çoğunu hastanede geçirmek zorundadır. Kistik fibrozis hastası olan genç kız hayatını rutinler, sınırlamalar ve kendi kendini kontrol etmekle geçirir. Fakat genç kızın hayatı oldukça etkileyici bir genç olan Will Newman ile tanışmasıyla bambaşka bir hal alır. Birbirlerinden etkilenmeye başlayan gençlerin önünde büyük bir engel vardır. Will de Stella gibi hastadır ve hastalıkları nedeniyle hayatlarına konulan sınırlamalar aralarına mesafe koymalarını gerektirir. Ancak onlar birlikte vakit geçirmeye devam ettikçe sınırlamaların dışına çıkmaya başlarlar. Will’in süregelen tedavisine karşı koymaya başladığı direnç onların ilişkini de derinden etkiler. Stella, yavaş yavaş Will’i son nefesini verene kadar yaşamak için ikna etmeye çalışır. Her an ölüm tehlikesi altında olsalar da henüz zamanları varken Will ile birlikte istedikleri gibi yaşamaya çalışan Stella, sevdiği insanı kurtarmayı başarabilecek midir?

Senden Beş Adım Uzakta (2019) (Five Feet Apart) Filmi Imdb'den 32,500 kişi tarafından oylandı ve 7,2 puan aldı. Bu film için editör puanı 7,0 olarak belirlendi. İyi Seyirler!

Teknik Detaylar

Kod :
General
Unique ID                                : 233452678275132918306021582519429388280 (0xAFA159B1C42957F67A9E3D0C073A57F8)
Complete name                            : /root/Desktop/2/Senden.Beş.Adım.Uzakta.2019.1080p.BluRay.x264.TR.Filmbol.mkv
Format                                  : Matroska
Format version                          : Version 4 / Version 2
File size                                : 1.90 GiB
Duration                                : 1h 56mn
Overall bit rate                        : 2 342 Kbps
Movie name                              : Senden Beş Adım Uzakta (2019) - Filmbol.org
Encoded date                            : UTC 2020-04-21 09:08:33
Writing application                      : mkvmerge v8.8.0 ('Wind at my back') 64bit
Writing library                          : libebml v1.3.3 + libmatroska v1.4.4

Video
ID                                      : 1
Format                                  : AVC
Format/Info                              : Advanced Video Codec
Format profile                          : [email protected]
Format settings, CABAC                  : Yes
Format settings, ReFrames                : 4 frames
Codec ID                                : V_MPEG4/ISO/AVC
Duration                                : 1h 56mn
Bit rate                                : 2 150 Kbps
Width                                    : 1 920 pixels
Height                                  : 800 pixels
Display aspect ratio                    : 2.40:1
Frame rate mode                          : Constant
Frame rate                              : 23.976 (24000/1001) fps
Color space                              : YUV
Chroma subsampling                      : 4:2:0
Bit depth                                : 8 bits
Scan type                                : Progressive
Bits/(Pixel*Frame)                      : 0.058
Stream size                              : 1.74 GiB (92%)
Title                                    : 1080P - Filmbol.org
Writing library                          : x264 core 152
Encoding settings                        : cabac=1 / ref=4 / deblock=1:-1:-1 / analyse=0x3:0x133 / me=umh / subme=9 / psy=1 / psy_rd=1.00:0.15 / mixed_ref=1 / me_range=24 / chroma_me=1 / trellis=2 / 8x8dct=1 / cqm=0 / deadzone=21,11 / fast_pskip=0 / chroma_qp_offset=-3 / threads=12 / lookahead_threads=1 / sliced_threads=0 / nr=0 / decimate=1 / interlaced=0 / bluray_compat=0 / constrained_intra=0 / bframes=3 / b_pyramid=2 / b_adapt=2 / b_bias=0 / direct=3 / weightb=1 / open_gop=0 / weightp=2 / keyint=250 / keyint_min=23 / scenecut=40 / intra_refresh=0 / rc_lookahead=60 / rc=2pass / mbtree=1 / bitrate=2150 / ratetol=1.0 / qcomp=0.60 / qpmin=0 / qpmax=69 / qpstep=4 / cplxblur=20.0 / qblur=0.5 / vbv_maxrate=31250 / vbv_bufsize=31250 / nal_hrd=none / filler=0 / ip_ratio=1.40 / aq=1:1.00
Default                                  : Yes
Forced                                  : No

Audio
ID                                      : 2
Format                                  : AC-3
Format/Info                              : Audio Coding 3
Mode extension                          : CM (complete main)
Format settings, Endianness              : Big
Codec ID                                : A_AC3
Duration                                : 1h 56mn
Bit rate mode                            : Constant
Bit rate                                : 192 Kbps
Channel(s)                              : 2 channels
Channel positions                        : Front: L R
Sampling rate                            : 48.0 KHz
Frame rate                              : 31.250 fps (1536 spf)
Compression mode                        : Lossy
Stream size                              : 160 MiB (8%)
Title                                    : Türkçe
Language                                : Turkish
Default                                  : Yes
Forced                                  : No

Film Detayları


 Senden Beş Adım Uzakta

 Senden Beş Adım Uzakta

 Senden Beş Adım Uzakta


Film Fragmanı


Film Detayları



Zip Şifresi: filmbol.org Aşağıdaki butona tıklayarak kopyalabilirsiniz.


Uptobox ile indir

1Fichier ile indir

1Fichier'den İndiremiyor musun? Tıklayın!


Mega linki şuan da gizli. Kullanıma açmak için konuya yorum yapın ve ardından sayfayı yenileyin.

Mega


Bunun için üzgünüz ancak, bu linke sadece premium üyeler erişebilir.

Filmbol Cloud

Şuan Online!
Şuan Online!
BroserBros Kurucu Admin
*******
Admin

13.02.2021 Yönetici Notu:

Kırık linkler kontrol edildi, kaldırıldı ve yenilendi. Tüm linkler tamamen çalışır durumda.
Şuan Offine!
Şuan Offine!
rabiakayau Yeni Üye
*
Üye

  • Konular0
  • Mesajlar1
  • Rep puanı 0
Uğur böceği sadece bir böcek değil


Hızlı Menü: