Filmbol Forum Film İndir 1080P v Yüzüklerin Efendisi: Yüzük Kardeşliği (The Lord of the Rings: The Fellowship of the Ring) - 2001 - TR+ORG - 1080P | tt0120737
Mega linklerinin şikayet edilmemesi için global erişime kapatıp sadece yorum yapanlara açıyoruz. Bu linkleri gizleme işlemini mecburen yapıyoruz ve yorum yapmanızın siteye değil size faydası vardır. Teşekürler yazmayı çok görüp, Random/Spam mesajlar atarak Mega linklerini açmaya çalışan kullanıcılara önce süresiz ban, devam ederse IP ban atacağız.
Filmbol'da moderatör olmak ister misiniz? Bizimle iletişime geçmek için tıklayın!
Yüzüklerin Efendisi: Yüzük Kardeşliği (The Lord of the Rings: The Fellowship of the Ring) - 2001 - TR+ORG - 1080P | tt0120737
BroserBros
Yüzüklerin Efendisi: Yüzük Kardeşliği (The Lord of the Rings: The Fellowship of the Ring) - 2001 - TR+ORG - 1080P | tt0120737
19
7284
  • Derecelendirme: 0/5 - 0 oy
  • 1
  • 2
  • 3
  • 4
  • 5
Konuyu Okuyanlar:5 Ziyaretçi
Şuan Online!
Filmin Yayınlanma Tarihi: 2001 
WWW
Şuan Online!
BroserBros Kurucu Admin
*******
Admin



 Yüzüklerin Efendisi: Yüzük Kardeşliği



Shire’dan gelen sade bir Hobbit ve sekiz arkadaşı, güçlü Bir Yüzüğü yok etmek ve Orta Dünya’yı Dark Lord Sauron’dan kurtarmak için bir yolculuğa çıktılar.

Yüzüklerin Efendisi: Yüzük Kardeşliği (2001) (The Lord of the Rings: The Fellowship of the Ring) | tt0120737 Filmi Imdb'den 1,700,000 kişi tarafından oylandı ve 8,8 puan aldı. Bu film için editör puanı %99 olarak belirlendi. İyi Seyirler!

Teknik Detaylar

Kod :
General
Unique ID                                : 211478487640636040779164070312887071121 (0x9F1946731E91366C0C6866C9701E3191)
Complete name                            : /home/BroserBros/Desktop/3/Yüzüklerin.Efendisi.Yüzük.Kardeşliği.Theatrical.2001.1080p.BluRay.x264.TR.ENG.Filmbol.mkv
Format                                   : Matroska
Format version                           : Version 4
File size                                : 2.96 GiB
Duration                                 : 2 h 58 min
Overall bit rate                         : 2 375 kb/s
Movie name                               : Yüzüklerin Efendisi: Yüzük Kardeşliği - The Lord of the Rings: The Fellowship of the Ring - 2001 | Filmbol.org
Encoded date                             : UTC 2021-04-26 08:39:49
Writing application                      : mkvmerge v53.0.0 ('Fool's Gold') 64-bit
Writing library                          : libebml v1.4.1 + libmatroska v1.6.2

Video
ID                                       : 1
Format                                   : AVC
Format/Info                              : Advanced Video Codec
Format profile                           : [email protected]
Format settings                          : CABAC / 5 Ref Frames
Format settings, CABAC                   : Yes
Format settings, Reference frames        : 5 frames
Codec ID                                 : V_MPEG4/ISO/AVC
Duration                                 : 2 h 58 min
Bit rate                                 : 1 829 kb/s
Width                                    : 1 920 pixels
Height                                   : 800 pixels
Display aspect ratio                     : 2.40:1
Frame rate mode                          : Constant
Frame rate                               : 23.976 (24000/1001) FPS
Color space                              : YUV
Chroma subsampling                       : 4:2:0
Bit depth                                : 8 bits
Scan type                                : Progressive
Bits/(Pixel*Frame)                       : 0.050
Stream size                              : 2.28 GiB (77%)
Title                                    : 1080P - Filmbol.org
Writing library                          : x264 core 129 r2230 1cffe9f
Encoding settings                        : cabac=1 / ref=5 / deblock=1:-1:-1 / analyse=0x3:0x113 / me=umh / subme=8 / psy=1 / psy_rd=1.00:0.15 / mixed_ref=1 / me_range=16 / chroma_me=1 / trellis=1 / 8x8dct=1 / cqm=0 / deadzone=21,11 / fast_pskip=1 / chroma_qp_offset=-3 / threads=12 / lookahead_threads=2 / sliced_threads=0 / nr=0 / decimate=1 / interlaced=0 / bluray_compat=0 / constrained_intra=0 / bframes=3 / b_pyramid=2 / b_adapt=2 / b_bias=0 / direct=3 / weightb=1 / open_gop=0 / weightp=2 / keyint=240 / keyint_min=23 / scenecut=40 / intra_refresh=0 / rc_lookahead=50 / rc=2pass / mbtree=1 / bitrate=1829 / ratetol=1.0 / qcomp=0.60 / qpmin=10 / qpmax=51 / qpstep=4 / cplxblur=20.0 / qblur=0.5 / ip_ratio=1.40 / aq=1:1.00
Default                                  : Yes
Forced                                   : No

Audio #1
ID                                       : 2
Format                                   : AC-3
Format/Info                              : Audio Coding 3
Commercial name                          : Dolby Digital
Codec ID                                 : A_AC3
Duration                                 : 2 h 58 min
Bit rate mode                            : Constant
Bit rate                                 : 448 kb/s
Channel(s)                               : 6 channels
Channel layout                           : L R C LFE Ls Rs
Sampling rate                            : 48.0 kHz
Frame rate                               : 31.250 FPS (1536 SPF)
Compression mode                         : Lossy
Delay relative to video                  : 1 s 917 ms
Stream size                              : 572 MiB (19%)
Title                                    : Türkçe - Filmbol.org
Language                                 : Turkish
Service kind                             : Complete Main
Default                                  : Yes
Forced                                   : No

Audio #2
ID                                       : 3
Format                                   : AAC LC
Format/Info                              : Advanced Audio Codec Low Complexity
Codec ID                                 : A_AAC-2
Duration                                 : 2 h 58 min
Bit rate                                 : 96.0 kb/s
Channel(s)                               : 2 channels
Channel layout                           : L R
Sampling rate                            : 48.0 kHz
Frame rate                               : 46.875 FPS (1024 SPF)
Compression mode                         : Lossy
Delay relative to video                  : -83 ms
Stream size                              : 122 MiB (4%)
Title                                    : Orjinal Dil - Filmbol.org
Language                                 : English
Default                                  : No
Forced                                   : No

Text
ID                                       : 4
Format                                   : UTF-8
Codec ID                                 : S_TEXT/UTF8
Codec ID/Info                            : UTF-8 Plain Text
Duration                                 : 2 h 49 min
Bit rate                                 : 34 b/s
Count of elements                        : 1319
Stream size                              : 42.1 KiB (0%)
Title                                    : Türkçe - Filmbol.org
Language                                 : Turkish
Default                                  : No
Forced                                   : No

Film Detayları


 Yüzüklerin Efendisi: Yüzük Kardeşliği

 Yüzüklerin Efendisi: Yüzük Kardeşliği

 Yüzüklerin Efendisi: Yüzük Kardeşliği


Film Fragmanı


Film Detayları


Extended Versiyondur.

Uptobox ile indir

1Fichier ile indir

1Fichier'den İndiremiyor musun? Tıklayın!


Mega linki şuan da gizli. Kullanıma açmak için konuya yorum yapın ve ardından sayfayı yenileyin.

Mega


Bunun için üzgünüz ancak, bu linke sadece premium üyeler erişebilir.

Filmbol Cloud





Şuan Offine!
Şuan Offine!
ııshelbyıı Uzman Üye
**
Uzman Üye

  • Konular0
  • Mesajlar14
  • Rep puanı 0
harika
Şuan Offine!
Şuan Offine!
patriotic Yeni Üye
*
Üye

  • Konular0
  • Mesajlar2
  • Rep puanı 0
.....
Şuan Offine!
Şuan Offine!
caner Süper Üye
***
Super Üye

  • Konular0
  • Mesajlar52
  • Rep puanı 0
teşekkürler
Şuan Offine!
Şuan Offine!
gecicihesap Yeni Üye
*
Üye

  • Konular0
  • Mesajlar1
  • Rep puanı 0
müthiş elinize sağlık
Şuan Offine!
Şuan Offine!
TheLegolas Yeni Üye
*
Üye

  • Konular0
  • Mesajlar2
  • Rep puanı 0
Baş yapıt
Şuan Offine!
Şuan Offine!
free Uzman Üye
**
Uzman Üye

  • Konular0
  • Mesajlar13
  • Rep puanı 0
Tongue for mega...
Şuan Offine!
Şuan Offine!
nikriz21 Yeni Üye
*
Üye

  • Konular0
  • Mesajlar1
  • Rep puanı 0
süper film
Şuan Online!
Şuan Online!
BroserBros Kurucu Admin
*******
Admin

14.12.2019 Güncelleme Notu:

Linkler yenilendi. Kırık linkler kaldırıldı ve Genel Konu Düzenlemesi Yapıldı
Şuan Offine!
Şuan Offine!
Allen35 Yeni Üye
*
Üye

  • Konular0
  • Mesajlar1
  • Rep puanı 0
Djsjs


Hızlı Menü: