Filmbol Forum Film İndir 1080P v Hobbit: Smaug'un Çorak Toprakları (The Hobbit: The Desolation of Smaug) - 2013 - TR+ORG - 1080P | tt1170358
Mega linklerinin şikayet edilmemesi için global erişime kapatıp sadece yorum yapanlara açıyoruz. Bu linkleri gizleme işlemini mecburen yapıyoruz ve yorum yapmanızın siteye değil size faydası vardır. Teşekürler yazmayı çok görüp, Random/Spam mesajlar atarak Mega linklerini açmaya çalışan kullanıcılara önce süresiz ban, devam ederse IP ban atacağız.
Filmbol'da moderatör olmak ister misiniz? Bizimle iletişime geçmek için tıklayın!
Hobbit: Smaug'un Çorak Toprakları (The Hobbit: The Desolation of Smaug) - 2013 - TR+ORG - 1080P | tt1170358
BroserBros
Hobbit: Smaug'un Çorak Toprakları (The Hobbit: The Desolation of Smaug) - 2013 - TR+ORG - 1080P | tt1170358
21
4628
  • Derecelendirme: 0/5 - 0 oy
  • 1
  • 2
  • 3
  • 4
  • 5
Konuyu Okuyanlar:1 Ziyaretçi
Şuan Online!
Filmin Yayınlanma Tarihi: 2013 
WWW
Şuan Online!
BroserBros Kurucu Admin
*******
Admin



 Hobbit: Smaug'un Çorak Toprakları



Hobbit üçlemesinin ilk filmi olan Hobbit: Beklenmedik Yolculuk’un devam filmi olan yapımda Shire’lı Hobbit Bilbo Baggins, Thorin Meşekalkan’ı ve beraberindeki 12 cüce ile çıktığı yolculuğu doğuya, Kuytuorman’a doğru sürdürmektedir. Ejderha Smaug’un yıllardır hüküm sürdüğü Yalnız Dağ’a ve kayıp Erebor Cüce Krallığı’na ulaşmak için atıldıkları macerada başlarına yine akıl almaz belalar gelecektir.

Hobbit: Smaug'un Çorak Toprakları (2013) (The Hobbit: The Desolation of Smaug) | tt1170358 Filmi Imdb'den 610,000 kişi tarafından oylandı ve 7,8 puan aldı. Bu film için editör puanı %91 olarak belirlendi. İyi Seyirler!

Teknik Detaylar

Kod :
General
Unique ID                                : 33477841669136164903091915287080716467 (0x192F9907BE4D53CC27020993941BC8B3)
Complete name                            : /home/BroserBros/Desktop/7/Hobbit.Smaugun.Çorak.Toprakları.2013.1080p.BluRay.x264.TR.ENG.Filmbol.mkv
Format                                   : Matroska
Format version                           : Version 4
File size                                : 2.56 GiB
Duration                                 : 2 h 41 min
Overall bit rate                         : 2 272 kb/s
Movie name                               : Hobbit: Smaug'un Çorak Toprakları - The Hobbit: The Desolation of Smaug - 2013 | Filmbol.org
Encoded date                             : UTC 2021-04-26 12:42:03
Writing application                      : mkvmerge v53.0.0 ('Fool's Gold') 64-bit
Writing library                          : libebml v1.4.1 + libmatroska v1.6.2

Video
ID                                       : 1
Format                                   : AVC
Format/Info                              : Advanced Video Codec
Format profile                           : [email protected]
Format settings                          : CABAC / 4 Ref Frames
Format settings, CABAC                   : Yes
Format settings, Reference frames        : 4 frames
Codec ID                                 : V_MPEG4/ISO/AVC
Duration                                 : 2 h 41 min
Bit rate                                 : 1 728 kb/s
Width                                    : 1 920 pixels
Height                                   : 800 pixels
Display aspect ratio                     : 2.40:1
Frame rate mode                          : Constant
Frame rate                               : 23.976 (24000/1001) FPS
Original frame rate                      : 23.976 (23976/1000) FPS
Color space                              : YUV
Chroma subsampling                       : 4:2:0
Bit depth                                : 8 bits
Scan type                                : Progressive
Bits/(Pixel*Frame)                       : 0.047
Stream size                              : 1.95 GiB (76%)
Title                                    : 1080P - Filmbol.org
Writing library                          : x264 core 135 r2 f0c1c53
Encoding settings                        : cabac=1 / ref=4 / deblock=1:-1:-1 / analyse=0x3:0x133 / me=umh / subme=9 / psy=1 / psy_rd=1.00:0.15 / mixed_ref=1 / me_range=24 / chroma_me=1 / trellis=2 / 8x8dct=1 / cqm=0 / deadzone=21,11 / fast_pskip=0 / chroma_qp_offset=-3 / threads=36 / lookahead_threads=3 / sliced_threads=0 / nr=0 / decimate=1 / interlaced=0 / bluray_compat=0 / constrained_intra=0 / bframes=3 / b_pyramid=2 / b_adapt=2 / b_bias=0 / direct=3 / weightb=1 / open_gop=0 / weightp=2 / keyint=250 / keyint_min=23 / scenecut=40 / intra_refresh=0 / rc_lookahead=60 / rc=2pass / mbtree=1 / bitrate=1728 / ratetol=1.0 / qcomp=0.60 / qpmin=0 / qpmax=69 / qpstep=4 / cplxblur=20.0 / qblur=0.5 / vbv_maxrate=31250 / vbv_bufsize=31250 / nal_hrd=none / ip_ratio=1.40 / aq=1:1.00
Default                                  : Yes
Forced                                   : No
Color range                              : Limited
Color primaries                          : BT.709
Matrix coefficients                      : BT.709

Audio #1
ID                                       : 2
Format                                   : AC-3
Format/Info                              : Audio Coding 3
Commercial name                          : Dolby Digital
Codec ID                                 : A_AC3
Duration                                 : 2 h 41 min
Bit rate mode                            : Constant
Bit rate                                 : 448 kb/s
Channel(s)                               : 6 channels
Channel layout                           : L R C LFE Ls Rs
Sampling rate                            : 48.0 kHz
Frame rate                               : 31.250 FPS (1536 SPF)
Compression mode                         : Lossy
Stream size                              : 517 MiB (20%)
Title                                    : Türkçe - Filmbol.org
Language                                 : Turkish
Service kind                             : Complete Main
Default                                  : Yes
Forced                                   : No

Audio #2
ID                                       : 3
Format                                   : AAC LC
Format/Info                              : Advanced Audio Codec Low Complexity
Codec ID                                 : A_AAC-2
Duration                                 : 2 h 41 min
Bit rate                                 : 93.7 kb/s
Channel(s)                               : 2 channels
Channel layout                           : L R
Sampling rate                            : 48.0 kHz
Frame rate                               : 46.875 FPS (1024 SPF)
Compression mode                         : Lossy
Stream size                              : 108 MiB (4%)
Title                                    : Orjinal Dil - Filmbol.org
Language                                 : English
Default                                  : No
Forced                                   : No

Text
ID                                       : 4
Format                                   : UTF-8
Codec ID                                 : S_TEXT/UTF8
Codec ID/Info                            : UTF-8 Plain Text
Duration                                 : 2 h 30 min
Bit rate                                 : 39 b/s
Count of elements                        : 1297
Stream size                              : 43.0 KiB (0%)
Title                                    : Türkçe - Filmbol.org
Language                                 : Turkish
Default                                  : No
Forced                                   : No

Film Detayları


 Hobbit: Smaug'un Çorak Toprakları

 Hobbit: Smaug'un Çorak Toprakları

 Hobbit: Smaug'un Çorak Toprakları


Film Fragmanı


Film Detayları

Uptobox ile indir

1Fichier ile indir

1Fichier'den İndiremiyor musun? Tıklayın!


Mega linki şuan da gizli. Kullanıma açmak için konuya yorum yapın ve ardından sayfayı yenileyin.

Mega


Bunun için üzgünüz ancak, bu linke sadece premium üyeler erişebilir.

Filmbol Cloud





Şuan Offine!
Şuan Offine!
ııshelbyıı Uzman Üye
**
Uzman Üye

  • Konular0
  • Mesajlar14
  • Rep puanı 0
harika
Şuan Offine!
Şuan Offine!
TaunMilitary Yeni Üye
*
Üye

  • Konular0
  • Mesajlar2
  • Rep puanı 0
Teşekkür ederim
Şuan Offine!
Şuan Offine!
parsley Yeni Üye
*
Üye

  • Konular0
  • Mesajlar1
  • Rep puanı 0
teşekkürler harika film
Şuan Offine!
Şuan Offine!
free Uzman Üye
**
Uzman Üye

  • Konular0
  • Mesajlar13
  • Rep puanı 0
megaaaa
Şuan Online!
Şuan Online!
BroserBros Kurucu Admin
*******
Admin

14.12.2019 Güncelleme Notu:

Linkler yenilendi. Kırık linkler kaldırıldı ve Genel Konu Düzenlemesi Yapıldı
Şuan Offine!
Şuan Offine!
LNTBRFLMCN001 Uzman Üye
**
Uzman Üye

  • Konular0
  • Mesajlar10
  • Rep puanı 0
asdasdsdaasd
Şuan Offine!
Şuan Offine!
furkanof Yeni Üye
*
Üye

  • Konular0
  • Mesajlar3
  • Rep puanı 0
mediafire Big Grin
Şuan Offine!
Şuan Offine!
AkBerat Yeni Üye
*
Üye

  • Konular0
  • Mesajlar2
  • Rep puanı 0
Muhteşem.
Şuan Offine!
Şuan Offine!
omerbabaoffice Yeni Üye
*
Üye

  • Konular0
  • Mesajlar3
  • Rep puanı 0
THE HOBBİT


Hızlı Menü: