⤤ Premium'a Yükselt
Filmbol Forum Film İndir 720P v Esaretin Bedeli (The Shawshank Redemption) - 1994 - TR+ORG - 720P | tt0111161

Filmbol TV kullanıma açıldı. Bu adresten giriş yapabilirsin: Giriş





Esaretin Bedeli (The Shawshank Redemption) - 1994 - TR+ORG - 720P | tt0111161
BroserBros
Esaretin Bedeli (The Shawshank Redemption) - 1994 - TR+ORG - 720P | tt0111161
14
2027
  • Derecelendirme: 0/5 - 0 oy
  • 1
  • 2
  • 3
  • 4
  • 5
Konuyu Okuyanlar:2 Ziyaretçi
Şuan Online!
Filmin Yayınlanma Tarihi: 1998 
WWW
Rapor Et!
Şuan Online!
BroserBros Kurucu Admin
*******
Admin



 Esaretin Bedeli



Esaretin Bedeli zaten ünü ile bilinmiş bir filmdir. Yüksek oy oranları ile yüksek puan alan bu film, Andy isimli genç’i ve onun yaşamını konu ediniyor. Andy bir gün eşi tarafından aldatıldığını öğreniyor ve bunun üzerine içinden bir şeyler yapmak geçiyor. Ancak daha kendisi bir şey yapamadan, eşi ve sevgilisi yatakta ölü bulunuyor. Bunun üzerine andy ömür boyu hapis cezasına çarptırlıyor ancak yaşama umudunu kaybetmeyerek bu umudu diğer mahkumlara da aşılıyor…

Esaretin Bedeli (1994) (The Shawshank Redemption) | tt0111161 Filmi Imdb'den 2,500,000 kişi tarafından oylandı ve 9,3 puan aldı. Bu film için editör puanı %99 olarak belirlendi. İyi Seyirler!

Teknik Detaylar

Kod :
General
Unique ID                                : 298543765189241893654866374998582422738 (0xE099700DAF345EA5EECBB62ADF60ECD2)
Complete name                            : /home/BroserBros/Desktop/8/Esaretin.Bedeli.1994.720p.x264.TR.ENG.Filmbol.mkv
Format                                   : Matroska
Format version                           : Version 4
File size                                : 1.02 GiB
Duration                                 : 2 h 22 min
Overall bit rate                         : 1 024 kb/s
Movie name                               : Esaretin Bedeli - The Shawshank Redemption - 1994 | Filmbol.org
Encoded date                             : UTC 2021-03-06 14:38:20
Writing application                      : mkvmerge v53.0.0 ('Fool's Gold') 64-bit
Writing library                          : libebml v1.4.1 + libmatroska v1.6.2

Video
ID                                       : 1
Format                                   : AVC
Format/Info                              : Advanced Video Codec
Format profile                           : [email protected]
Format settings                          : CABAC / 4 Ref Frames
Format settings, CABAC                   : Yes
Format settings, Reference frames        : 4 frames
Codec ID                                 : V_MPEG4/ISO/AVC
Duration                                 : 2 h 22 min
Bit rate                                 : 766 kb/s
Width                                    : 1 280 pixels
Height                                   : 720 pixels
Display aspect ratio                     : 16:9
Frame rate mode                          : Constant
Frame rate                               : 23.976 (24000/1001) FPS
Color space                              : YUV
Chroma subsampling                       : 4:2:0
Bit depth                                : 8 bits
Scan type                                : Progressive
Bits/(Pixel*Frame)                       : 0.035
Stream size                              : 781 MiB (75%)
Title                                    : 720P - Filmbol.org
Writing library                          : x264 core 120 r2164 da19765
Encoding settings                        : cabac=1 / ref=4 / deblock=1:-2:-1 / analyse=0x3:0x113 / me=umh / subme=8 / psy=1 / psy_rd=1.00:0.00 / mixed_ref=1 / me_range=12 / chroma_me=1 / trellis=1 / 8x8dct=1 / cqm=0 / deadzone=21,11 / fast_pskip=1 / chroma_qp_offset=-2 / threads=3 / sliced_threads=0 / nr=0 / decimate=1 / interlaced=0 / bluray_compat=0 / constrained_intra=0 / bframes=16 / b_pyramid=2 / b_adapt=1 / b_bias=0 / direct=3 / weightb=1 / open_gop=0 / weightp=2 / keyint=240 / keyint_min=23 / scenecut=40 / intra_refresh=0 / rc=2pass / mbtree=0 / bitrate=766 / ratetol=1.0 / qcomp=0.60 / qpmin=10 / qpmax=51 / qpstep=4 / cplxblur=20.0 / qblur=0.5 / ip_ratio=1.40 / pb_ratio=1.30 / aq=2:1.00
Default                                  : Yes
Forced                                   : No

Audio #1
ID                                       : 2
Format                                   : AC-3
Format/Info                              : Audio Coding 3
Commercial name                          : Dolby Digital
Codec ID                                 : A_AC3
Duration                                 : 2 h 22 min
Bit rate mode                            : Constant
Bit rate                                 : 192 kb/s
Channel(s)                               : 2 channels
Channel layout                           : L R
Sampling rate                            : 48.0 kHz
Frame rate                               : 31.250 FPS (1536 SPF)
Compression mode                         : Lossy
Delay relative to video                  : -109 ms
Stream size                              : 196 MiB (19%)
Title                                    : Türkçe - Filmbol.org
Language                                 : Turkish
Service kind                             : Complete Main
Default                                  : Yes
Forced                                   : Yes

Audio #2
ID                                       : 3
Format                                   : AAC LC SBR
Format/Info                              : Advanced Audio Codec Low Complexity with Spectral Band Replication
Commercial name                          : HE-AAC
Format settings                          : Explicit
Codec ID                                 : A_AAC-2
Duration                                 : 2 h 22 min
Bit rate                                 : 64.0 kb/s
Channel(s)                               : 2 channels
Channel layout                           : L R
Sampling rate                            : 44.1 kHz
Frame rate                               : 21.533 FPS (2048 SPF)
Compression mode                         : Lossy
Delay relative to video                  : -125 ms
Stream size                              : 65.3 MiB (6%)
Title                                    : Orjinal Dil - Filmbol.org
Language                                 : English
Default                                  : No
Forced                                   : No

Text
ID                                       : 4
Format                                   : UTF-8
Codec ID                                 : S_TEXT/UTF8
Codec ID/Info                            : UTF-8 Plain Text
Duration                                 : 2 h 16 min
Bit rate                                 : 58 b/s
Count of elements                        : 1161
Stream size                              : 57.9 KiB (0%)
Title                                    : Türkçe Altyazı - Filmbol.org
Language                                 : Turkish
Default                                  : Yes
Forced                                   : No

Film Detayları


 Esaretin Bedeli

 Esaretin Bedeli

 Esaretin Bedeli


Film Fragmanı


Film İndir


Rar Şifresi: filmbol.org


Uptobox ile indir

1Fichier ile indir

1Fichier'den İndiremiyor musun? Tıklayın!












Şuan Offine!
Rapor Et!
Şuan Offine!
Onlyou83 Uzman Üye
**
Uzman Üye
  • Konular0
  • Mesajlar10
  • Rep puanı 0
"Bir şeylerin anlamlı olduğu zamana dönmek istiyorum."
Başyapıt. En iyisi. Thank..
Şuan Online!
Rapor Et!
Şuan Online!
BroserBros Kurucu Admin
*******
Admin
09.03.2021 Yönetici Notu:

Kırık linkler kontrol edildi, kaldırıldı ve yenilendi. Tüm linkler tamamen çalışır durumda.
Şuan Offine!
Rapor Et!
Şuan Offine!
dessa77 Üye
*
Üye
  • Konular0
  • Mesajlar1
  • Rep puanı 0
çok teşekkürler çok makbule geçti
Şuan Offine!
Rapor Et!
Şuan Offine!
stalcore Üye
*
Üye
  • Konular0
  • Mesajlar1
  • Rep puanı 0
teşekkürler Smile
Şuan Offine!
Rapor Et!
Şuan Offine!
myzrail Üye
*
Üye
  • Konular0
  • Mesajlar387
  • Rep puanı 0
efsane
Şuan Offine!
Rapor Et!
Şuan Offine!
yakuber Üye
*
Üye
  • Konular0
  • Mesajlar1
  • Rep puanı 0
Teşekkürler.
Şuan Offine!
Rapor Et!
Şuan Offine!
asdfgty Üye
*
Üye
  • Konular0
  • Mesajlar38
  • Rep puanı 0
Teşekkürler.
Şuan Online!
Rapor Et!
Şuan Online!
leosanchez Üye
*
Üye
  • Konular0
  • Mesajlar275
  • Rep puanı 0
Teşekkürler.
Şuan Offine!
Rapor Et!
Şuan Offine!
ed4wert4 Üye
*
Üye
  • Konular0
  • Mesajlar42
  • Rep puanı 0
Teşekkürler.


Hızlı Menü: