⤤ Premium'a Yükselt
Filmbol Forum Film İndir BRRip XviD v Marwen'a Hoş Geldiniz (Welcome to Marwen) - 2018 - TR - BRRip XviD | tt3289724

Filmbol TV kullanıma açıldı. Bu adresten giriş yapabilirsin: Giriş





Marwen'a Hoş Geldiniz (Welcome to Marwen) - 2018 - TR - BRRip XviD | tt3289724
BroserBros
Marwen'a Hoş Geldiniz (Welcome to Marwen) - 2018 - TR - BRRip XviD | tt3289724
1
553
  • Derecelendirme: 0/5 - 0 oy
  • 1
  • 2
  • 3
  • 4
  • 5
Konuyu Okuyanlar:2 Ziyaretçi
Şuan Online!
Filmin Yayınlanma Tarihi: 2018 
WWW
Rapor Et!
Şuan Online!
BroserBros Kurucu Admin
*******
Admin



 Marwen'a Hoş Geldiniz



Mark, hafızasını kaybetmiş birisidir. Kimse, onun düzelebileceğini tahmin bile etmez, ancak mark hafızasını kaybettikten sonra sanat’a yönelmiştir. Sanatın hafıza açıcı olduğunu biliyor muydunuz? Cevabınız yüksek ihtimalle Hayır’dır. Doğru böyle bir özelliği zaten yok ancak Mark hafızasını sanat’a yönelerek tekrar kazanıyor ve çevresindeki herkesi şaşırtmayı başarıyor. Yönetmen koltuğunda Forresy Gump’u da yöneten Robert Zemeckis var.

Marwen'a Hoş Geldiniz (2018) (Welcome to Marwen) | tt3289724 Filmi Imdb'den 21,000 kişi tarafından oylandı ve 6,2 puan aldı. Bu film için editör puanı %67 olarak belirlendi. İyi Seyirler!

Teknik Detaylar

Kod :
General
Complete name                            : /home/BroserBros/Desktop/10/Marwene.Hoş.Geldiniz.2018.BRRip.XviD.TR.Filmbol.avi
Format                                   : AVI
Format/Info                              : Audio Video Interleave
File size                                : 1.37 GiB
Duration                                 : 1 h 55 min
Overall bit rate                         : 1 686 kb/s

Video
ID                                       : 0
Format                                   : MPEG-4 Visual
Format profile                           : Advanced [email protected]
Format settings                          : BVOP2 / Custom Matrix
Format settings, BVOP                    : 2
Format settings, QPel                    : No
Format settings, GMC                     : No warppoints
Format settings, Matrix                  : Custom
Codec ID                                 : XVID
Codec ID/Hint                            : XviD
Duration                                 : 1 h 55 min
Bit rate                                 : 1 549 kb/s
Width                                    : 720 pixels
Height                                   : 304 pixels
Display aspect ratio                     : 2.35:1
Frame rate                               : 23.976 (24000/1001) FPS
Color space                              : YUV
Chroma subsampling                       : 4:2:0
Bit depth                                : 8 bits
Scan type                                : Progressive
Compression mode                         : Lossy
Bits/(Pixel*Frame)                       : 0.295
Stream size                              : 1.25 GiB (92%)
Writing library                          : XviD 1.2.1 (UTC 2008-12-04)

Audio
ID                                       : 1
Format                                   : MPEG Audio
Format version                           : Version 1
Format profile                           : Layer 3
Format settings                          : Joint stereo / MS Stereo
Codec ID                                 : 55
Codec ID/Hint                            : MP3
Duration                                 : 1 h 52 min
Bit rate mode                            : Constant
Bit rate                                 : 128 kb/s
Channel(s)                               : 2 channels
Sampling rate                            : 48.0 kHz
Frame rate                               : 41.667 FPS (1152 SPF)
Compression mode                         : Lossy
Stream size                              : 103 MiB (7%)
Alignment                                : Aligned on interleaves
Interleave, duration                     : 25  ms (0.59 video frame)
Writing library                          : LAME3.100
Encoding settings                        : -m j -V 4 -q 2 -lowpass 17 -b 128

Film Detayları


 Marwen'a Hoş Geldiniz

 Marwen'a Hoş Geldiniz

 Marwen'a Hoş Geldiniz


Film Fragmanı


Film İndir


Rar Şifresi: filmbol.org



Uptobox ile indir

1Fichier ile indir

1Fichier'den İndiremiyor musun? Tıklayın!












Şuan Online!
Rapor Et!
Şuan Online!
BroserBros Kurucu Admin
*******
Admin
13.03.2021 Yönetici Notu:

Kırık linkler kontrol edildi, kaldırıldı ve yenilendi. Tüm linkler tamamen çalışır durumda.


Hızlı Menü: