⤤ Premium'a Yükselt
Filmbol Forum Film İndir BRRip XviD v Uncut Gems (Kesilmemiş Taşlar) - 2019 - TR - BRRip XviD | tt5727208

Filmbol TV kullanıma açıldı. Bu adresten giriş yapabilirsin: Giriş





Uncut Gems (Kesilmemiş Taşlar) - 2019 - TR - BRRip XviD | tt5727208
BroserBros
Uncut Gems (Kesilmemiş Taşlar) - 2019 - TR - BRRip XviD | tt5727208
5
617
  • Derecelendirme: 0/5 - 0 oy
  • 1
  • 2
  • 3
  • 4
  • 5
Konuyu Okuyanlar:4 Ziyaretçi
Şuan Online!
Filmin Yayınlanma Tarihi: 2019 
WWW
Rapor Et!
Şuan Online!
BroserBros Kurucu Admin
*******
Admin



 Uncut Gems



Uncut Gems, New York’ta elmas ticaretinin döndüğü bölgede geçiyor. Altın Küre ve Emmy adayı Adam Sandler’ın başrolünü üstlendiği suç ve dram filminde Sandler, zengin ve ünlülere satış yapan bir kuyumcu dükkanı sahibine hayat veriyor. Mallarının bir kısmı çalındığında dükkan sahibinin hayatı karmaşık bir hal alıyor.

Uncut Gems (2019) (Kesilmemiş Taşlar) | tt5727208 Filmi Imdb'den 250,000 kişi tarafından oylandı ve 7,4 puan aldı. Bu film için editör puanı %91 olarak belirlendi. İyi Seyirler!

Teknik Detaylar

Kod :
General
Unique ID                                : 274420764194691932050550790235960700561 (0xCE73844743DB3C9604191672BB38EE91)
Complete name                            : /home/BroserBros/Desktop/7/Kesilmemiş.Taşlar.2019.BRRip.XviD.TR.Filmbol.avi
Format                                   : Matroska
Format version                           : Version 4
File size                                : 1.82 GiB
Duration                                 : 2 h 15 min
Overall bit rate                         : 1 918 kb/s
Movie name                               : Kesilmemiş Taşlar - Uncut Gems - 2019 | Filmbol.org
Encoded date                             : UTC 2021-05-28 12:52:58
Writing application                      : mkvmerge v53.0.0 ('Fool's Gold') 64-bit
Writing library                          : libebml v1.4.1 + libmatroska v1.6.2
FileExtension_Invalid                    : mkv mk3d mka mks

Video
ID                                       : 1
Format                                   : MPEG-4 Visual
Format profile                           : [email protected]
Format settings, BVOP                    : No
Format settings, QPel                    : No
Format settings, GMC                     : No warppoints
Format settings, Matrix                  : Default (H.263)
Codec ID                                 : V_MS/VFW/FOURCC / XVID
Codec ID/Hint                            : XviD
Duration                                 : 2 h 15 min
Bit rate                                 : 1 788 kb/s
Width                                    : 720 pixels
Height                                   : 302 pixels
Display aspect ratio                     : 2.40:1
Frame rate mode                          : Constant
Frame rate                               : 24.000 FPS
Color space                              : YUV
Chroma subsampling                       : 4:2:0
Bit depth                                : 8 bits
Scan type                                : Progressive
Compression mode                         : Lossy
Bits/(Pixel*Frame)                       : 0.343
Stream size                              : 1.70 GiB (93%)
Title                                    : Kesilmemiş Taşlar - Uncut Gems - 2019 | Filmbol.org
Writing library                          : Lavc58.1.100
Default                                  : Yes
Forced                                   : No

Audio
ID                                       : 2
Format                                   : MPEG Audio
Format version                           : Version 1
Format profile                           : Layer 3
Format settings                          : Joint stereo / MS Stereo
Codec ID                                 : A_MPEG/L3
Codec ID/Hint                            : MP3
Duration                                 : 2 h 15 min
Bit rate mode                            : Constant
Bit rate                                 : 128 kb/s
Channel(s)                               : 2 channels
Sampling rate                            : 48.0 kHz
Frame rate                               : 41.667 FPS (1152 SPF)
Compression mode                         : Lossy
Stream size                              : 124 MiB (7%)
Title                                    : Kesilmemiş Taşlar - Uncut Gems - 2019 | Filmbol.org
Language                                 : Turkish
Default                                  : Yes
Forced                                   : No

Text
ID                                       : 3
Format                                   : UTF-8
Codec ID                                 : S_TEXT/UTF8
Codec ID/Info                            : UTF-8 Plain Text
Duration                                 : 2 h 14 min
Bit rate                                 : 1 b/s
Count of elements                        : 38
Stream size                              : 1.62 KiB (0%)
Title                                    : Kesilmemiş Taşlar - Uncut Gems - 2019 | Filmbol.org
Language                                 : Turkish
Default                                  : Yes
Forced                                   : No

Film Detayları


 Uncut Gems

 Uncut Gems

 Uncut Gems


Film Fragmanı


Film İndir


Rar Şifresi: filmbol.org



Uptobox ile indir

1Fichier ile indir

1Fichier'den İndiremiyor musun? Tıklayın!












Şuan Offine!
Rapor Et!
Şuan Offine!
simurg26 Uzman Üye
**
Uzman Üye
  • Konular0
  • Mesajlar8
  • Rep puanı 0
teşekkürler
Şuan Offine!
Rapor Et!
Şuan Offine!
mandol Üye
*
Üye
  • Konular0
  • Mesajlar1
  • Rep puanı 0
teskürler
Şuan Online!
Rapor Et!
Şuan Online!
BroserBros Kurucu Admin
*******
Admin
29.05.2021 Yönetici Notu:

Kırık linkler kontrol edildi, kaldırıldı ve yenilendi. Tüm linkler tamamen çalışır durumda.
Şuan Offine!
Rapor Et!
Şuan Offine!
chaqma Üye
*
Üye
  • Konular0
  • Mesajlar1
  • Rep puanı 0
Adam Sandler oynuyosa bi izlemek lazım
Şuan Online!
Rapor Et!
Şuan Online!
TheSteeL Chief Executive Officer
******
CEO
(03-06-2021, Saat: 18:52)chaqma Adlı Kullanıcıdan Alıntı: Adam Sandler oynuyosa bi izlemek lazım
İyi Seyirler


Hızlı Menü: