⤤ Premium'a Yükselt

Merhaba, Ziyaretçi. Mega linklerinin bir kısmı deaktif halde ve yenileme çalışmalarına başladık. Bu süre içinde ikinci duyuruya kadar mega linklerini raporlamayın!! x

Filmbol Forum Film İndir BRRip XviD v Harry Potter ve Melez Prens (Harry Potter and the Half-Blood Prince) - 2009 - TR - BRRip XviD | tt0417741

Filmbol TV kullanıma açıldı. Bu adresten giriş yapabilirsin: Giriş





Harry Potter ve Melez Prens (Harry Potter and the Half-Blood Prince) - 2009 - TR - BRRip XviD | tt0417741
BroserBros
Harry Potter ve Melez Prens (Harry Potter and the Half-Blood Prince) - 2009 - TR - BRRip XviD | tt0417741
3
707
  • Derecelendirme: 0/5 - 0 oy
  • 1
  • 2
  • 3
  • 4
  • 5
Konuyu Okuyanlar:2 Ziyaretçi
Şuan Online!
Filmin Yayınlanma Tarihi: 2009 
WWW
Rapor Et!
Şuan Online!
BroserBros Kurucu Admin
*******
Admin



 Harry Potter ve Melez Prens



Fantastik Sinema fenomeni Harry Potter, bu defa serinin 6. kitabı Harry Potter ve Melez Prens uyarlamasıyla karşımızda. Sevimli kahramanımız Potter, Hogwarts’taki 6. Yılında bir sürpriz ile karşılaşır. Tesadüfen, üzerinde ‘bu kitap Melez Prens’e aittir’ yazılı bir kitap bulmasıyla kitabın içindeki büyüleri kurcalaması sonucu Melez Prens’in gizemini keşfetmeye koyulacaktır. Bilge büyücü Dumbledore’un yol arkadaşlığı, karanlık düşmanı Voldemort ile hesaplaşmasını kolaylaştırsa da, Harry Potter ve arkadaşlarını bu defa çok çetrefilli bir savaş beklemektedir.

Harry Potter ve Melez Prens (2009) (Harry Potter and the Half-Blood Prince) | tt0417741 Filmi Imdb'den 485,000 kişi tarafından oylandı ve 7,6 puan aldı. Bu film için editör puanı %80 olarak belirlendi. İyi Seyirler!

Teknik Detaylar

Kod :
General
Unique ID                                : 308733105470098562305323562662041904949 (0xE843D550D86AA0C0CE7F31B3D8FA6735)
Complete name                            : /home/BroserBros/Desktop/6/Harry.Potter.ve.Melez.Prens.2009.BRRip.XviD.TR.Filmbol.avi
Format                                   : Matroska
Format version                           : Version 4
File size                                : 1.58 GiB
Duration                                 : 2 h 33 min
Overall bit rate                         : 1 470 kb/s
Movie name                               : Harry Potter ve Melez Prens - Harry Potter and the Half-Blood Prince - 2009 | Filmbol.org
Encoded date                             : UTC 2021-05-13 11:42:53
Writing application                      : mkvmerge v53.0.0 ('Fool's Gold') 64-bit
Writing library                          : libebml v1.4.1 + libmatroska v1.6.2
FileExtension_Invalid                    : mkv mk3d mka mks

Video
ID                                       : 1
Format                                   : MPEG-4 Visual
Format profile                           : [email protected]
Format settings, BVOP                    : No
Format settings, QPel                    : No
Format settings, GMC                     : No warppoints
Format settings, Matrix                  : Default (H.263)
Codec ID                                 : V_MS/VFW/FOURCC / FMP4
Duration                                 : 2 h 33 min
Bit rate                                 : 1 340 kb/s
Width                                    : 720 pixels
Height                                   : 310 pixels
Display aspect ratio                     : 2.35:1
Frame rate mode                          : Constant
Frame rate                               : 23.976 FPS
Color space                              : YUV
Chroma subsampling                       : 4:2:0
Bit depth                                : 8 bits
Scan type                                : Progressive
Compression mode                         : Lossy
Bits/(Pixel*Frame)                       : 0.250
Stream size                              : 1.44 GiB (91%)
Title                                    : Harry Potter ve Melez Prens - Harry Potter and the Half-Blood Prince - 2009 | Filmbol.org
Writing library                          : Lavc56.41.100
Default                                  : Yes
Forced                                   : No

Audio
ID                                       : 2
Format                                   : MPEG Audio
Format version                           : Version 1
Format profile                           : Layer 3
Format settings                          : Joint stereo / MS Stereo
Codec ID                                 : A_MPEG/L3
Codec ID/Hint                            : MP3
Duration                                 : 2 h 33 min
Bit rate mode                            : Constant
Bit rate                                 : 128 kb/s
Channel(s)                               : 2 channels
Sampling rate                            : 48.0 kHz
Frame rate                               : 41.667 FPS (1152 SPF)
Compression mode                         : Lossy
Stream size                              : 141 MiB (9%)
Title                                    : Harry Potter ve Melez Prens - Harry Potter and the Half-Blood Prince - 2009 | Filmbol.org
Default                                  : Yes
Forced                                   : No

Film Detayları


 Harry Potter ve Melez Prens

 Harry Potter ve Melez Prens

 Harry Potter ve Melez Prens


Film Fragmanı


Film İndir


Rar Şifresi: filmbol.org



Uptobox ile indir

1Fichier ile indir

1Fichier'den İndiremiyor musun? Tıklayın!












Şuan Online!
Rapor Et!
Şuan Online!
BroserBros Kurucu Admin
*******
Admin
14.05.2021 Yönetici Notu:

Kırık linkler kontrol edildi, kaldırıldı ve yenilendi. Tüm linkler tamamen çalışır durumda.
Şuan Offine!
Rapor Et!
Şuan Offine!
Rummel Uzman Üye
**
Uzman Üye
  • Konular0
  • Mesajlar9
  • Rep puanı 0
Mükemmel
Şuan Offine!
Rapor Et!
Şuan Offine!
ilyasasri Üye
*
Üye
  • Konular0
  • Mesajlar11
  • Rep puanı 0
Teşekkürler.


Hızlı Menü: