⤤ Premium'a Yükselt
Filmbol Forum Film İndir BRRip XviD v Yabani (Wildling) - 2018 - TR - BRRip XviD | tt5085924

Filmbol TV kullanıma açıldı. Bu adresten giriş yapabilirsin: Giriş





Yabani (Wildling) - 2018 - TR - BRRip XviD | tt5085924
BroserBros
Yabani (Wildling) - 2018 - TR - BRRip XviD | tt5085924
2
581
  • Derecelendirme: 0/5 - 0 oy
  • 1
  • 2
  • 3
  • 4
  • 5
Konuyu Okuyanlar:1 Ziyaretçi
Şuan Online!
Filmin Yayınlanma Tarihi: 2018 
WWW
Rapor Et!
Şuan Online!
BroserBros Kurucu Admin
*******
Admin



 Yabani



Film, genç bir kızın büyüme hikayesi ile kurt adam efsanesini birleştiriyor ve ortaya korkutucu bir deneme çıkartıyor. Anna, dünyaya geldiğinden beri ‘Baba’ olarak bildiği bir adam tarafından toplumdan uzak bir şekilde büyütülmüştür ve bu adam, Anna’nın kökeniyle ilgili gerçeği ondan saklamak için elinden gelen her şeyi yapmıştır. Anna, polis memuru Ellen’ın koruması altında gerçek dünyaya adım attığında, çok geçmeden genç kızın sıradanlıktan çok uzak olduğu anlaşılacaktır. Normal hayata alışmakta zorlanan Anna, bir yandan içinde artmakta olan kana susamışlık hissiyle savaşırken, bir yandan da kendini vahşi doğaya çekilirken bulur.

Yabani (2018) (Wildling) | tt5085924 Filmi Imdb'den 13,000 kişi tarafından oylandı ve 5,5 puan aldı. Bu film için editör puanı %63 olarak belirlendi. İyi Seyirler!

Teknik Detaylar

Kod :
General
Unique ID                                : 149949996700976862521382955129624057444 (0x70CF51A22AAE852941FF1FCFCB6BD664)
Complete name                            : /home/BroserBros/Desktop/8/Yabani.2018.BRRip.XviD.TR.Filmbol.avi
Format                                   : Matroska
Format version                           : Version 4
File size                                : 924 MiB
Duration                                 : 1 h 32 min
Overall bit rate                         : 1 395 kb/s
Movie name                               : Yabani - Wildling - 2018 | Filmbol.org
Encoded date                             : UTC 2021-06-02 14:21:50
Writing application                      : mkvmerge v53.0.0 ('Fool's Gold') 64-bit
Writing library                          : libebml v1.4.1 + libmatroska v1.6.2
FileExtension_Invalid                    : mkv mk3d mka mks

Video
ID                                       : 1
Format                                   : MPEG-4 Visual
Format profile                           : [email protected]
Format settings, BVOP                    : No
Format settings, QPel                    : No
Format settings, GMC                     : No warppoints
Format settings, Matrix                  : Default (H.263)
Codec ID                                 : V_MS/VFW/FOURCC / XVID
Codec ID/Hint                            : XviD
Duration                                 : 1 h 32 min
Bit rate                                 : 1 265 kb/s
Width                                    : 720 pixels
Height                                   : 304 pixels
Display aspect ratio                     : 2.40:1
Frame rate mode                          : Constant
Frame rate                               : 23.976 FPS
Color space                              : YUV
Chroma subsampling                       : 4:2:0
Bit depth                                : 8 bits
Scan type                                : Progressive
Compression mode                         : Lossy
Bits/(Pixel*Frame)                       : 0.241
Stream size                              : 838 MiB (91%)
Title                                    : Yabani - Wildling - 2018 | Filmbol.org
Writing library                          : Lavc57.107.100
Default                                  : Yes
Forced                                   : No

Audio
ID                                       : 2
Format                                   : MPEG Audio
Format version                           : Version 1
Format profile                           : Layer 3
Format settings                          : Joint stereo / MS Stereo
Codec ID                                 : A_MPEG/L3
Codec ID/Hint                            : MP3
Duration                                 : 1 h 32 min
Bit rate mode                            : Constant
Bit rate                                 : 128 kb/s
Channel(s)                               : 2 channels
Sampling rate                            : 48.0 kHz
Frame rate                               : 41.667 FPS (1152 SPF)
Compression mode                         : Lossy
Stream size                              : 84.8 MiB (9%)
Title                                    : Yabani - Wildling - 2018 | Filmbol.org
Writing library                          : LAME3.99.5
Default                                  : Yes
Forced                                   : No

Film Detayları


 Yabani

 Yabani

 Yabani


Film Fragmanı


Film İndir


Rar Şifresi: filmbol.org



Uptobox ile indir

1Fichier ile indir

1Fichier'den İndiremiyor musun? Tıklayın!












Şuan Online!
Rapor Et!
Şuan Online!
BroserBros Kurucu Admin
*******
Admin
03.06.2021 Yönetici Notu:

Kırık linkler kontrol edildi, kaldırıldı ve yenilendi. Tüm linkler tamamen çalışır durumda.
Şuan Online!
Rapor Et!
Şuan Online!
algül Süper Üye
***
Super Üye
  • Konular0
  • Mesajlar180
  • Rep puanı 0
çok sağol...


Hızlı Menü: