⤤ Premium'a Yükselt
Filmbol Forum Film İndir BRRip XviD v Yükseltme (Upgrade) - 2018 - TR - BRRip XviD | tt6499752

Filmbol TV kullanıma açıldı. Bu adresten giriş yapabilirsin: Giriş





Yükseltme (Upgrade) - 2018 - TR - BRRip XviD | tt6499752
BroserBros
Yükseltme (Upgrade) - 2018 - TR - BRRip XviD | tt6499752
4
806
  • Derecelendirme: 0/5 - 0 oy
  • 1
  • 2
  • 3
  • 4
  • 5
Konuyu Okuyanlar:1 Ziyaretçi
Şuan Online!
Filmin Yayınlanma Tarihi: 2018 
WWW
Rapor Et!
Şuan Online!
BroserBros Kurucu Admin
*******
Admin



 Yükseltme



Eşiyle birlikteyken acımasızca saldırıya uğrayan Grey Trace, karısını saldırıda kaybetmenin yanı sıra belden aşağı da felç olmuştur. Günün birinde bir milyarder muciten bedenini geliştirecek deneysel bir tedavi teklifi alır. Tedavi için Trace’in bedenine STEM olarak adlandırılan yapay zeka implantı yerleştirilir. Tedavi ile insanüstü yetenekler kazanan Trace, karısını öldüren ve kendi hayatını mahveden kişilerden intikam almak için yola koyulur…

Yükseltme (2018) (Upgrade) | tt6499752 Filmi Imdb'den 170,000 kişi tarafından oylandı ve 7,5 puan aldı. Bu film için editör puanı %91 olarak belirlendi. İyi Seyirler!

Teknik Detaylar

Kod :
General
Unique ID                                : 25398795554238804444630720168004911963 (0x131BA14DA3985ECC477856F6AC8B835B)
Complete name                            : /home/BroserBros/Desktop/8/Yükseltme.2018.BRRip.XviD.TR.Filmbol.avi
Format                                   : Matroska
Format version                           : Version 4
File size                                : 1.34 GiB
Duration                                 : 1 h 39 min
Overall bit rate                         : 1 919 kb/s
Movie name                               : Yükseltme - Upgrade - 2018 | Filmbol.org
Encoded date                             : UTC 2021-06-06 12:46:00
Writing application                      : mkvmerge v53.0.0 ('Fool's Gold') 64-bit
Writing library                          : libebml v1.4.1 + libmatroska v1.6.2
FileExtension_Invalid                    : mkv mk3d mka mks

Video
ID                                       : 1
Format                                   : MPEG-4 Visual
Format profile                           : Advanced [email protected]
Format settings                          : BVOP2 / Custom Matrix
Format settings, BVOP                    : 2
Format settings, QPel                    : No
Format settings, GMC                     : No warppoints
Format settings, Matrix                  : Custom
Muxing mode                              : Packed bitstream
Codec ID                                 : V_MS/VFW/FOURCC / XVID
Codec ID/Hint                            : XviD
Duration                                 : 1 h 39 min
Bit rate                                 : 1 789 kb/s
Width                                    : 720 pixels
Height                                   : 304 pixels
Display aspect ratio                     : 2.35:1
Frame rate mode                          : Constant
Frame rate                               : 23.976 (24000/1001) FPS
Color space                              : YUV
Chroma subsampling                       : 4:2:0
Bit depth                                : 8 bits
Scan type                                : Progressive
Compression mode                         : Lossy
Bits/(Pixel*Frame)                       : 0.341
Stream size                              : 1.25 GiB (93%)
Title                                    : Yükseltme - Upgrade - 2018 | Filmbol.org
Writing library                          : XviD 1.2.1 (UTC 2008-12-04)
Default                                  : Yes
Forced                                   : No

Audio
ID                                       : 2
Format                                   : MPEG Audio
Format version                           : Version 1
Format profile                           : Layer 3
Format settings                          : Joint stereo / MS Stereo
Codec ID                                 : A_MPEG/L3
Codec ID/Hint                            : MP3
Duration                                 : 1 h 39 min
Bit rate mode                            : Constant
Bit rate                                 : 128 kb/s
Channel(s)                               : 2 channels
Sampling rate                            : 48.0 kHz
Frame rate                               : 41.667 FPS (1152 SPF)
Compression mode                         : Lossy
Stream size                              : 91.5 MiB (7%)
Title                                    : Yükseltme - Upgrade - 2018 | Filmbol.org
Writing library                          : LAME3.98.4
Default                                  : Yes
Forced                                   : No

Film Detayları


 Yükseltme

 Yükseltme

 Yükseltme


Film Fragmanı


Film İndir


Rar Şifresi: filmbol.org



Uptobox ile indir

1Fichier ile indir

1Fichier'den İndiremiyor musun? Tıklayın!












Şuan Offine!
Rapor Et!
Şuan Offine!
simurg26 Uzman Üye
**
Uzman Üye
  • Konular0
  • Mesajlar8
  • Rep puanı 0
teşekkürler
Şuan Offine!
Rapor Et!
Şuan Offine!
cetin21 Üye
*
Üye
  • Konular0
  • Mesajlar4
  • Rep puanı 0
teşekkürler
Şuan Online!
Rapor Et!
Şuan Online!
BroserBros Kurucu Admin
*******
Admin
07.06.2021 Yönetici Notu:

Kırık linkler kontrol edildi, kaldırıldı ve yenilendi. Tüm linkler tamamen çalışır durumda.
Şuan Offine!
Rapor Et!
Şuan Offine!
berkay52 Üye
*
Üye
  • Konular0
  • Mesajlar13
  • Rep puanı 0
Teşekkürler.


Hızlı Menü: