⤤ Premium'a Yükselt
Filmbol Forum Film İndir 1080P v Rüzgar Yükseliyor (Kaze tachinu - The Wind Rises) - 2013 - TR+ORG - 1080P | tt2013293

Filmbol TV kullanıma açıldı. Bu adresten giriş yapabilirsin: Giriş





Rüzgar Yükseliyor (Kaze tachinu - The Wind Rises) - 2013 - TR+ORG - 1080P | tt2013293
BroserBros
Rüzgar Yükseliyor (Kaze tachinu - The Wind Rises) - 2013 - TR+ORG - 1080P | tt2013293
12
1734
  • Derecelendirme: 0/5 - 0 oy
  • 1
  • 2
  • 3
  • 4
  • 5
Konuyu Okuyanlar:3 Ziyaretçi
Şuan Online!
Filmin Yayınlanma Tarihi: 2012 
WWW
Rapor Et!
Şuan Online!
BroserBros Kurucu Admin
*******
Admin



 Rüzgar Yükseliyor



The Wind Rises, uçaklara bir hayli ilgili olan ve bir gün uzman bir uçak tasarımcısı olmanın hayallerini kuran başkahraman Jiro’nun hikayesini ele alıyor. En büyük idolü ise bu alanda tanınmış bir uzman olan, Alpler’in ötesindeki Caproni’dir. Caproni işlerinin estetik güzelliği ve muazzam teknik becerisiyle bu alanın önde gelen isimlerinden biri olmuştur. Çocukluğundan beri görme sorunları yaşayan Jiro, 1930’ların sonundan önemli bir kurumun uçak departmanına girmeyi başarır. Zaman ilerledikçe başarısı patronlarının da ilgisini çeker ve onu istediği gibi tasarım yapması konusunda özgür bırakmaya karar verir. İkinci Dünya Savaşı başlamak üzeredir ve Jiro’nun hayatında birçok şeyi değiştirecektir. Filmin yönetmen koltuğunda usta sinemacı Hayao Miyazaki bulunuyor.

Rüzgar Yükseliyor (2013) | tt2013293 Filmi Imdb'den 80,000 kişi tarafından oylandı ve 7,8 puan aldı. Bu film için editör puanı %92 olarak belirlendi. İyi Seyirler!

Teknik Detaylar

Kod :
General
Unique ID                                : 11144460427968545490583094337922318316 (0x86258524333FF980C6B8BAE1A6EBFEC)
Complete name                            : C:\Users\Administrator\Desktop\3\Rüzgar.Yükseliyor.2013.1080p.BluRay.x264.TR.ENG.Filmbol.mkv
Format                                   : Matroska
Format version                           : Version 4
File size                                : 2.58 GiB
Duration                                 : 2 h 6 min
Overall bit rate                         : 2 919 kb/s
Movie name                               : Rüzgar Yükseliyor - The Wind Rises - 2013 | Filmbol.org
Encoded date                             : UTC 2021-09-08 14:13:07
Writing application                      : mkvmerge v61.0.0 ('So') 64-bit
Writing library                          : libebml v1.4.2 + libmatroska v1.6.4

Video
ID                                       : 1
Format                                   : AVC
Format/Info                              : Advanced Video Codec
Format profile                           : [email protected]
Format settings                          : CABAC / 4 Ref Frames
Format settings, CABAC                   : Yes
Format settings, Reference frames        : 4 frames
Codec ID                                 : V_MPEG4/ISO/AVC
Duration                                 : 2 h 6 min
Bit rate                                 : 2 500 kb/s
Width                                    : 1 920 pixels
Height                                   : 1 040 pixels
Display aspect ratio                     : 1.85:1
Frame rate mode                          : Constant
Frame rate                               : 23.976 (23976/1000) FPS
Color space                              : YUV
Chroma subsampling                       : 4:2:0
Bit depth                                : 8 bits
Scan type                                : Progressive
Bits/(Pixel*Frame)                       : 0.052
Stream size                              : 2.21 GiB (86%)
Title                                    : 1080P - Filmbol.org
Writing library                          : x264 core 152 r2851M ba24899
Encoding settings                        : cabac=1 / ref=4 / deblock=1:-1:-1 / analyse=0x3:0x113 / me=umh / subme=9 / psy=1 / psy_rd=1.00:0.15 / mixed_ref=1 / me_range=24 / chroma_me=1 / trellis=2 / 8x8dct=1 / cqm=0 / deadzone=21,11 / fast_pskip=1 / chroma_qp_offset=-3 / threads=32 / lookahead_threads=4 / sliced_threads=0 / nr=0 / decimate=1 / interlaced=0 / bluray_compat=0 / constrained_intra=0 / bframes=3 / b_pyramid=2 / b_adapt=2 / b_bias=0 / direct=3 / weightb=1 / open_gop=0 / weightp=2 / keyint=250 / keyint_min=25 / scenecut=40 / intra_refresh=0 / rc_lookahead=50 / rc=2pass / mbtree=1 / bitrate=2500 / ratetol=1.0 / qcomp=0.60 / qpmin=0 / qpmax=69 / qpstep=4 / cplxblur=20.0 / qblur=0.5 / vbv_maxrate=31250 / vbv_bufsize=31250 / nal_hrd=none / filler=0 / ip_ratio=1.40 / aq=3:1.00
Default                                  : Yes
Forced                                   : No

Audio #1
ID                                       : 2
Format                                   : AC-3
Format/Info                              : Audio Coding 3
Commercial name                          : Dolby Digital
Codec ID                                 : A_AC3
Duration                                 : 2 h 6 min
Bit rate mode                            : Constant
Bit rate                                 : 192 kb/s
Channel(s)                               : 2 channels
Channel layout                           : L R
Sampling rate                            : 48.0 kHz
Frame rate                               : 31.250 FPS (1536 SPF)
Compression mode                         : Lossy
Delay relative to video                  : 57 ms
Stream size                              : 174 MiB (7%)
Title                                    : Türkçe - Filmbol.org
Language                                 : Turkish
Service kind                             : Complete Main
Default                                  : Yes
Forced                                   : Yes

Audio #2
ID                                       : 3
Format                                   : AAC LC
Format/Info                              : Advanced Audio Codec Low Complexity
Codec ID                                 : A_AAC-2
Duration                                 : 2 h 6 min
Bit rate                                 : 224 kb/s
Channel(s)                               : 1 channel
Channel layout                           : C
Sampling rate                            : 48.0 kHz
Frame rate                               : 46.875 FPS (1024 SPF)
Compression mode                         : Lossy
Delay relative to video                  : -43 ms
Stream size                              : 203 MiB (8%)
Title                                    : Orijinal Dil - Filmbol.org
Language                                 : Japanese
Default                                  : No
Forced                                   : No

Text #1
ID                                       : 4
Format                                   : UTF-8
Codec ID                                 : S_TEXT/UTF8
Codec ID/Info                            : UTF-8 Plain Text
Duration                                 : 2 h 6 min
Bit rate                                 : 35 b/s
Count of elements                        : 982
Stream size                              : 32.4 KiB (0%)
Title                                    : Türkçe - Filmbol.org
Language                                 : Turkish
Default                                  : No
Forced                                   : Yes

Text #2
ID                                       : 5
Format                                   : UTF-8
Codec ID                                 : S_TEXT/UTF8
Codec ID/Info                            : UTF-8 Plain Text
Duration                                 : 2 h 6 min
Bit rate                                 : 33 b/s
Count of elements                        : 1013
Stream size                              : 31.1 KiB (0%)
Title                                    : Orijinal Dil - Filmbol.org
Language                                 : English
Default                                  : No
Forced                                   : No

Film Detayları


 Rüzgar Yükseliyor

 Rüzgar Yükseliyor

 Rüzgar Yükseliyor


Film Fragmanı


Film İndir


Rar Şifresi: filmbol.org


Uptobox ile indir

1Fichier ile indir

1Fichier'den İndiremiyor musun? Tıklayın!












Şuan Offine!
Rapor Et!
Şuan Offine!
dejavu Uzman Üye
**
Uzman Üye
  • Konular2
  • Mesajlar18
  • Rep puanı 0
teşekkürler
Şuan Offine!
Rapor Et!
Şuan Offine!
ComputerTeacher Üye
*
Üye
  • Konular0
  • Mesajlar1
  • Rep puanı 0
teşekkürler
Şuan Offine!
Rapor Et!
Şuan Offine!
sadred Cezalı Üye
  • Konular0
  • Mesajlar6
ewrewrwerew
Şuan Offine!
Rapor Et!
Şuan Offine!
turki32 Üye
*
Üye
  • Konular0
  • Mesajlar3
  • Rep puanı 0
teşekkürler
Şuan Offine!
Rapor Et!
Şuan Offine!
dijital26 Üye
*
Üye
  • Konular0
  • Mesajlar3
  • Rep puanı 0
Teşekkür ederim..
Şuan Offine!
Rapor Et!
Şuan Offine!
gamedeveloper68 Üye
*
Üye
  • Konular0
  • Mesajlar1
  • Rep puanı 0
ehrkhkfvfuuhu
Şuan Offine!
Rapor Et!
Şuan Offine!
Arif DEĞERCAN Süper Üye
***
Super Üye
  • Konular0
  • Mesajlar34
  • Rep puanı 0
(27-12-2019, Saat: 18:50)dejavu Adlı Kullanıcıdan Alıntı: teşekkürler
Şuan Online!
Rapor Et!
Şuan Online!
BroserBros Kurucu Admin
*******
Admin
09.09.2021 Yönetici Notu:

Kırık linkler kontrol edildi, kaldırıldı ve yenilendi. Tüm linkler tamamen çalışır durumda.
Şuan Offine!
Rapor Et!
Şuan Offine!
mahmut9935 Üye
*
Üye
  • Konular0
  • Mesajlar35
  • Rep puanı 0
Teşekkürler.


Hızlı Menü: