Filmbol Forum Film İndir BRRip XviD v Ant-Man ve Wasp (Ant-Man and the Wasp) - 2018 - TR - BRRip XviD | tt5095030
Mega linklerinin şikayet edilmemesi için global erişime kapatıp sadece yorum yapanlara açıyoruz. Bu linkleri gizleme işlemini mecburen yapıyoruz ve yorum yapmanızın siteye değil size faydası vardır. Teşekürler yazmayı çok görüp, Random/Spam mesajlar atarak Mega linklerini açmaya çalışan kullanıcılara önce süresiz ban, devam ederse IP ban atacağız.
Filmbol'da moderatör olmak ister misiniz? Bizimle iletişime geçmek için tıklayın!
Ant-Man ve Wasp (Ant-Man and the Wasp) - 2018 - TR - BRRip XviD | tt5095030
BroserBros
Ant-Man ve Wasp (Ant-Man and the Wasp) - 2018 - TR - BRRip XviD | tt5095030
4
743
  • Derecelendirme: 0/5 - 0 oy
  • 1
  • 2
  • 3
  • 4
  • 5
Konuyu Okuyanlar:1 Ziyaretçi
Şuan Online!
Filmin Yayınlanma Tarihi: 2018 
WWW
Şuan Online!
BroserBros Kurucu Admin
*******
Admin



 Ant-Man ve Wasp



Ant-Man ve Wasp, hem iyi bir baba hem de süper kahraman olan Scott Lang’ın geçmişindeki sırları çözmek için Wasp ile işbirliği yaparak verdiği mücadeleyi konu ediyor. Scott Lang, Yenilmezler’in savaşında yer almanın sonuçları ile hem bir süper kahraman, hem de bir baba olarak boğuşmaktadır. Hayatının iki yanını da dengede tutmaya çalışan Scott hem iyi bir baba, hem de sorumluluk sahibi kahraman Ant-Man olmak için çabalarken, Hope van Dyne ve Dr. Hank Pym acil bir görevle kapısını çalarlar. Scott bir kez daha kostümünü giymeli ve Wasp ile işbirliği yaparak geçmişindeki sırları çözmek için işe koyulmalıdır.

Ant-Man ve Wasp (2018) (Ant-Man and the Wasp) | tt5095030 Filmi Imdb'den 320,000 kişi tarafından oylandı ve 7,0 puan aldı. Bu film için editör puanı %88 olarak belirlendi. İyi Seyirler!

Teknik Detaylar

Kod :
General
Complete name                            : /home/BroserBros/Desktop/1/Ant-Man.Ve.Wasp.2018.BRRip.XViD.TR.Filmbol.avi
Format                                   : AVI
Format/Info                              : Audio Video Interleave
File size                                : 1.43 GiB
Duration                                 : 1 h 58 min
Overall bit rate                         : 1 735 kb/s

Video
ID                                       : 0
Format                                   : MPEG-4 Visual
Format profile                           : [email protected]
Format settings, BVOP                    : No
Format settings, QPel                    : No
Format settings, GMC                     : No warppoints
Format settings, Matrix                  : Default (H.263)
Codec ID                                 : XVID
Codec ID/Hint                            : XviD
Duration                                 : 1 h 58 min
Bit rate                                 : 1 594 kb/s
Width                                    : 720 pixels
Height                                   : 304 pixels
Display aspect ratio                     : 2.40:1
Frame rate                               : 23.976 (23976/1000) FPS
Color space                              : YUV
Chroma subsampling                       : 4:2:0
Bit depth                                : 8 bits
Scan type                                : Progressive
Compression mode                         : Lossy
Bits/(Pixel*Frame)                       : 0.304
Stream size                              : 1.32 GiB (92%)
Writing library                          : Lavc58.18.100

Audio
ID                                       : 1
Format                                   : MPEG Audio
Format version                           : Version 1
Format profile                           : Layer 3
Format settings                          : Joint stereo / MS Stereo
Codec ID                                 : 55
Codec ID/Hint                            : MP3
Duration                                 : 1 h 58 min
Bit rate mode                            : Constant
Bit rate                                 : 128 kb/s
Channel(s)                               : 2 channels
Sampling rate                            : 48.0 kHz
Frame rate                               : 41.667 FPS (1152 SPF)
Compression mode                         : Lossy
Stream size                              : 108 MiB (7%)
Alignment                                : Aligned on interleaves
Interleave, duration                     : 24  ms (0.58 video frame)

Film Detayları


 Ant-Man ve Wasp

 Ant-Man ve Wasp

 Ant-Man ve Wasp


Film Fragmanı


Film Detayları


Uptobox ile indir

1Fichier ile indir

1Fichier'den İndiremiyor musun? Tıklayın!


Mega linki şuan da gizli. Kullanıma açmak için konuya yorum yapın ve ardından sayfayı yenileyin.

Mega


Bunun için üzgünüz ancak, bu linke sadece premium üyeler erişebilir.

Filmbol Cloud





Şuan Offine!
Şuan Offine!
Ap0calypse Süper Üye
***
Super Üye

  • Konular0
  • Mesajlar39
  • Rep puanı 0
eline sağlık
Şuan Online!
Şuan Online!
BroserBros Kurucu Admin
*******
Admin

11.03.2021 Yönetici Notu:

Kırık linkler kontrol edildi, kaldırıldı ve yenilendi. Tüm linkler tamamen çalışır durumda. @sectechno
Şuan Online!
Şuan Online!
Furkan61 Süper Üye
***
Super Üye

  • Konular0
  • Mesajlar184
  • Rep puanı 1
güzel film
Şuan Offine!
Şuan Offine!
sectechno Premium Üye
****

  • Konular11
  • Mesajlar108
  • Rep puanı 20
Teşekkürler BroserBros.İyi çalışmalar. Smile


Konu ile Alakalı Benzer Konular
Konular Yazar Yorumlar Okunma Son Yorum
Filmin Yayınlanma Tarihi: 2021
Yıldırım Gücü (Thunder Force) - 2021 - TR - BRRip XviD | tt10121392 TheSteeL 0 7 7 saat önce
Son Yorum: TheSteeL
Filmin Yayınlanma Tarihi: 2019
47 Metre Derinde: Kafes (47 Meters Down: Uncaged) - 2019 - TR - BRRip XviD BroserBros 2 99 9 saat önce
Son Yorum: ömerk
Filmin Yayınlanma Tarihi: 2020
Kadaver (Cadaver) - 2020 - TR - BRRip XviD BroserBros 1 78 9 saat önce
Son Yorum: ömerk
Filmin Yayınlanma Tarihi: 2006
Arabalar (Cars) - 2006 - TR - BRRip XviD BroserBros 4 352 , Saat: 02:36
Son Yorum: paboo
Filmin Yayınlanma Tarihi: 2020
Dipte (Breaking Surface) - 2020 - TR - BRRip XviD | tt10081762 TheSteeL 3 68 , Saat: 02:15
Son Yorum: TheSteeL

Hızlı Menü: