Filmbol Forum Film İndir 720P v Yesterday (2019) Türkçe Dublaj BLURAY m720P İndir
Mega linklerinin şikayet edilmemesi için global erişime kapatıp sadece yorum yapanlara açıyoruz. Bu linkleri gizleme işlemini mecburen yapıyoruz ve yorum yapmanızın siteye değil size faydası vardır. Teşekürler yazmayı çok görüp, Random/Spam mesajlar atarak Mega linklerini açmaya çalışan kullanıcılara önce süresiz ban, devam ederse IP ban atacağız.
Filmbol'da moderatör olmak ister misiniz? Bizimle iletişime geçmek için tıklayın!
Yesterday (2019) Türkçe Dublaj BLURAY m720P İndir
BroserBros
Yesterday (2019) Türkçe Dublaj BLURAY m720P İndir
0
362
  • Derecelendirme: 0/5 - 0 oy
  • 1
  • 2
  • 3
  • 4
  • 5
Konuyu Okuyanlar:1 Ziyaretçi
Şuan Online!
Filmin Yayınlanma Tarihi: 2019 
WWW
Şuan Online!
BroserBros Kurucu Admin
*******
Admin





Ses Kodek: AC3


Audio Coding 3 (AC3)






Yesterday



Teknik Detaylar


Kod :
General
Complete name                            : Yesterday.2019.m720p.BluRay.x264.TR.Filmbol.mkv
Format                                   : Matroska
Format version                           : Version 4 / Version 2
File size                                : 1.21 GiB
Duration                                 : 1h 56mn
Overall bit rate                         : 1 486 Kbps
Movie name                               : Yesterday (2019) - Filmbol.org
Encoded date                             : UTC 2019-11-23 21:33:32
Writing application                      : mkvmerge v35.0.0 ('All The Love In The World') 64-bit
Writing library                          : libebml v1.3.9 + libmatroska v1.5.2

Video
ID                                       : 1
Format                                   : AVC
Format/Info                              : Advanced Video Codec
Format profile                           : [email protected]
Format settings, CABAC                   : Yes
Format settings, ReFrames                : 4 frames
Codec ID                                 : V_MPEG4/ISO/AVC
Duration                                 : 1h 56mn
Bit rate                                 : 1 100 Kbps
Width                                    : 1 280 pixels
Height                                   : 534 pixels
Display aspect ratio                     : 2.40:1
Original display aspect ratio            : 2.40:1
Frame rate mode                          : Constant
Frame rate                               : 23.976 (24000/1001) fps
Color space                              : YUV
Chroma subsampling                       : 4:2:0
Bit depth                                : 8 bits
Scan type                                : Progressive
Bits/(Pixel*Frame)                       : 0.067
Stream size                              : 914 MiB (74%)
Title                                    : 720P - Filmbol.org
Writing library                          : x264 core 157
Default                                  : Yes
Forced                                   : No

Audio
ID                                       : 2
Format                                   : AC-3
Format/Info                              : Audio Coding 3
Mode extension                           : CM (complete main)
Format settings, Endianness              : Big
Codec ID                                 : A_AC3
Duration                                 : 1h 56mn
Bit rate mode                            : Constant
Bit rate                                 : 384 Kbps
Channel(s)                               : 6 channels
Channel positions                        : Front: L C R, Side: L R, LFE
Sampling rate                            : 48.0 KHz
Frame rate                               : 31.250 fps (1536 spf)
Compression mode                         : Lossy
Stream size                              : 319 MiB (26%)
Title                                    : Türkçe - Filmbol.org
Language                                 : Turkish
Default                                  : Yes
Forced                                   : Yes

Text
ID                                       : 3
Format                                   : UTF-8
Codec ID                                 : S_TEXT/UTF8
Codec ID/Info                            : UTF-8 Plain Text
Duration                                 : 1h 45mn
Bit rate                                 : 1 bps
Count of elements                        : 31
Stream size                              : 871 Bytes (0%)
Title                                    : KISIM
Language                                 : Turkish
Default                                  : Yes
Forced                                   : Yes

Film Detayları


Yesterday

Yesterday

Yesterday


Film Fragmanı


Film Detayları

Mini 720P İndir



Uptobox ile indir

Mega linki şuan da gizli. Kullanıma açmak için konuya yorum yapın ve ardından sayfayı yenileyin.

Mega


MediaFire ile indir

Google Drive linki şuan da gizli. Kullanıma açmak için konuya yorum yapın ve ardından sayfayı yenileyin.

Google Drive



Konu ile Alakalı Benzer Konular
Konular Yazar Yorumlar Okunma Son Yorum
Filmin Yayınlanma Tarihi: 2019
Aslan Kral (The Lion King) - 2019 - TR+ORG - 720P | tt6105098 BroserBros 24 4,197 , Saat: 19:18
Son Yorum: BroserBros
Filmin Yayınlanma Tarihi: 2019
Silahlar Fora (Guns Akimbo) - 2019 - TR+ORG - 720P | tt6902676 TheSteeL 4 157 10-04-2021, Saat: 16:21
Son Yorum: TheSteeL
Filmin Yayınlanma Tarihi: 2019
Barbarları Beklerken (Waiting for the Barbarians) - 2019 - TR+ORG - 720P | tt6149154 TheSteeL 2 38 09-04-2021, Saat: 19:41
Son Yorum: TheSteeL
Filmin Yayınlanma Tarihi: 2019
Polaroid (Polaroid) - 2019 - TR+ORG - 720P | tt5598292 TheSteeL 0 51 07-04-2021, Saat: 01:10
Son Yorum: TheSteeL
Filmin Yayınlanma Tarihi: 2019
Terminatör: Kara Kader (Terminator: Dark Fate) - 2019 - TR+ORG - 720P | tt6450804 BroserBros 4 367 06-04-2021, Saat: 22:16
Son Yorum: BroserBros

Hızlı Menü: