⤤ Premium'a Yükselt
Filmbol Forum Film İndir BRRip XviD v Oyuncak Hikâyesi 4 (Toy Story 4) - 2019 - TR - BRRip XviD | tt1979376

Filmbol TV kullanıma açıldı. Bu adresten giriş yapabilirsin: Giriş





Oyuncak Hikâyesi 4 (Toy Story 4) - 2019 - TR - BRRip XviD | tt1979376
BroserBros
Oyuncak Hikâyesi 4 (Toy Story 4) - 2019 - TR - BRRip XviD | tt1979376
14
1554
  • Derecelendirme: 0/5 - 0 oy
  • 1
  • 2
  • 3
  • 4
  • 5
Konuyu Okuyanlar:3 Ziyaretçi
Şuan Online!
Filmin Yayınlanma Tarihi: 2019 
WWW
Rapor Et!
Şuan Online!
BroserBros Kurucu Admin
*******
Admin



 Oyuncak Hikâyesi 4



Oyuncak Hikayesi 4, kaşıktan yapılma bir oyuncak olan Forky’nin atıldığı macerayı konu ediyor. Bir geri dönüşüm projesi ile yaratılan Forky, oyuncak olduğunu asla kabul etmez. Tek kullanımlık bir kaşıktan yapılma bir oyuncak olsa da o oyuncak olmadığı konusunda ısrarcıdır. Kendisini Bonnie’nin odasına ait hissetmeyen Forky, dünyadaki amacının ne olduğunu düşünmeye başlar. Kendisini oyuncaklardan biri olarak görmediği için Bonnie’nin yanında kalmak zorunda hissetmeyen Forky, dünyadaki amacını kaşık olarak yerine getirmeye karar verir. Ancak onun oyuncak olarak üstesinden gelmesi gereken bambaşka bir görevi vardır.

Oyuncak Hikâyesi 4 (2019) (Toy Story 4) | tt1979376 Filmi Imdb'den 220,000 kişi tarafından oylandı ve 7,7 puan aldı. Bu film için editör puanı %86 olarak belirlendi. İyi Seyirler!

Teknik Detaylar

Kod :
General
Unique ID                                : 116327430100369611488926621614668076340 (0x5783D91CF9E73EAE79C081F996FD5534)
Complete name                            : /home/BroserBros/Desktop/8/Oyuncak.Hikayesi.4.2019.BRRip.XviD.TR.Filmbol.avi
Format                                   : Matroska
Format version                           : Version 4
File size                                : 1.20 GiB
Duration                                 : 1 h 40 min
Overall bit rate                         : 1 723 kb/s
Movie name                               : Oyuncak Hikayesi 4 - Toy Story 4 - 2019 | Filmbol.org
Encoded date                             : UTC 2021-05-18 13:39:18
Writing application                      : mkvmerge v53.0.0 ('Fool's Gold') 64-bit
Writing library                          : libebml v1.4.1 + libmatroska v1.6.2
FileExtension_Invalid                    : mkv mk3d mka mks

Video
ID                                       : 1
Format                                   : MPEG-4 Visual
Format profile                           : [email protected]
Format settings, BVOP                    : No
Format settings, QPel                    : No
Format settings, GMC                     : No warppoints
Format settings, Matrix                  : Default (H.263)
Codec ID                                 : V_MS/VFW/FOURCC / XVID
Codec ID/Hint                            : XviD
Duration                                 : 1 h 40 min
Bit rate                                 : 1 593 kb/s
Width                                    : 720 pixels
Height                                   : 302 pixels
Display aspect ratio                     : 2.40:1
Frame rate mode                          : Constant
Frame rate                               : 23.976 FPS
Color space                              : YUV
Chroma subsampling                       : 4:2:0
Bit depth                                : 8 bits
Scan type                                : Progressive
Compression mode                         : Lossy
Bits/(Pixel*Frame)                       : 0.306
Stream size                              : 1.11 GiB (92%)
Title                                    : Oyuncak Hikayesi 4 - Toy Story 4 - 2019 | Filmbol.org
Writing library                          : Lavc58.35.100
Default                                  : Yes
Forced                                   : No

Audio
ID                                       : 2
Format                                   : MPEG Audio
Format version                           : Version 1
Format profile                           : Layer 3
Format settings                          : Joint stereo / MS Stereo
Codec ID                                 : A_MPEG/L3
Codec ID/Hint                            : MP3
Duration                                 : 1 h 40 min
Bit rate mode                            : Constant
Bit rate                                 : 128 kb/s
Channel(s)                               : 2 channels
Sampling rate                            : 48.0 kHz
Frame rate                               : 41.667 FPS (1152 SPF)
Compression mode                         : Lossy
Stream size                              : 91.7 MiB (7%)
Title                                    : Oyuncak Hikayesi 4 - Toy Story 4 - 2019 | Filmbol.org
Default                                  : Yes
Forced                                   : No

Film Detayları


 Oyuncak Hikâyesi 4

 Oyuncak Hikâyesi 4

 Oyuncak Hikâyesi 4


Film Fragmanı


Film İndir


Rar Şifresi: filmbol.org



Uptobox ile indir

1Fichier ile indir

1Fichier'den İndiremiyor musun? Tıklayın!












Şuan Offine!
Rapor Et!
Şuan Offine!
efsanem Uzman Üye
**
Uzman Üye
  • Konular0
  • Mesajlar8
  • Rep puanı 0
teşekkürler
Şuan Offine!
Rapor Et!
Şuan Offine!
haytoki1 Uzman Üye
**
Uzman Üye
  • Konular0
  • Mesajlar18
  • Rep puanı 0
teşekkürler ps2 de izlicem indirip
Şuan Offine!
Rapor Et!
Şuan Offine!
umitcan Üye
*
Üye
  • Konular0
  • Mesajlar1
  • Rep puanı 0
####
Şuan Offine!
Rapor Et!
Şuan Offine!
Snoorn Üye
*
Üye
  • Konular0
  • Mesajlar1
  • Rep puanı 0
Teşekkür ederim
Şuan Offine!
Rapor Et!
Şuan Offine!
elnazege Üye
*
Üye
  • Konular0
  • Mesajlar6
  • Rep puanı 0
Smile Smile teşekkürler
Şuan Online!
Rapor Et!
Şuan Online!
BroserBros Kurucu Admin
*******
Admin
19.05.2021 Yönetici Notu:

Kırık linkler kontrol edildi, kaldırıldı ve yenilendi. Tüm linkler tamamen çalışır durumda.
Şuan Offine!
Rapor Et!
Şuan Offine!
darkportal Uzman Üye
**
Uzman Üye
  • Konular0
  • Mesajlar9
  • Rep puanı 0
teşekkürler
Şuan Offine!
Rapor Et!
Şuan Offine!
Tarık Coşkun Üye
*
Üye
  • Konular0
  • Mesajlar19
  • Rep puanı 0
Teşekkürler
Şuan Offine!
Rapor Et!
Şuan Offine!
demir35 Üye
*
Üye
  • Konular0
  • Mesajlar7
  • Rep puanı 0
Teşekkürler.


Hızlı Menü: