Filmbol Forum Film İndir 1080P v Oyuncak Hikayesi 4 (Toy Story 4) Türkçe Dublaj BLURAY m1080P İndir
Mega linklerinin şikayet edilmemesi için global erişime kapatıp sadece yorum yapanlara açıyoruz. Bu linkleri gizleme işlemini mecburen yapıyoruz ve yorum yapmanızın siteye değil size faydası vardır. Teşekürler yazmayı çok görüp, Random/Spam mesajlar atarak Mega linklerini açmaya çalışan kullanıcılara önce süresiz ban, devam ederse IP ban atacağız.
Filmbol'da moderatör olmak ister misiniz? Bizimle iletişime geçmek için tıklayın!
Oyuncak Hikayesi 4 (Toy Story 4) Türkçe Dublaj BLURAY m1080P İndir
BroserBros
Oyuncak Hikayesi 4 (Toy Story 4) Türkçe Dublaj BLURAY m1080P İndir
32
2912
  • Derecelendirme: 5/5 - 1 oy
  • 1
  • 2
  • 3
  • 4
  • 5
Konuyu Okuyanlar:1 Ziyaretçi
Şuan Online!
Filmin Yayınlanma Tarihi: 2019 
WWW
Şuan Online!
BroserBros Kurucu Admin
*******
Admin





Ses Kodek: AC3


Audio Coding 3 (AC3)






Oyuncak Hikayesi 4



Teknik Detaylar


Kod :
General
Complete name                            : Oyuncak.Hikayesi.4.2019.m1080p.BLURAY.x264.TR.Filmbol.mkv
Format                                   : Matroska
Format version                           : Version 4 / Version 2
File size                                : 1.74 GiB
Duration                                 : 1h 40mn
Overall bit rate                         : 2 484 Kbps
Movie name                               : Toy Story 4 (2019) - Filmbol.org
Encoded date                             : UTC 2019-11-03 00:41:19
Writing application                      : mkvmerge v35.0.0 ('All The Love In The World') 64-bit
Writing library                          : libebml v1.3.9 + libmatroska v1.5.2

Video
ID                                       : 1
Format                                   : AVC
Format/Info                              : Advanced Video Codec
Format profile                           : [email protected]
Format settings, CABAC                   : Yes
Format settings, ReFrames                : 4 frames
Codec ID                                 : V_MPEG4/ISO/AVC
Duration                                 : 1h 40mn
Bit rate                                 : 2 100 Kbps
Width                                    : 1 920 pixels
Height                                   : 800 pixels
Display aspect ratio                     : 2.40:1
Frame rate mode                          : Constant
Frame rate                               : 23.976 (24000/1001) fps
Color space                              : YUV
Chroma subsampling                       : 4:2:0
Bit depth                                : 8 bits
Scan type                                : Progressive
Bits/(Pixel*Frame)                       : 0.057
Stream size                              : 1.47 GiB (84%)
Title                                    : 1080P - Filmbol.org
Writing library                          : x264 core 158
Default                                  : Yes
Forced                                   : No

Audio
ID                                       : 2
Format                                   : AC-3
Format/Info                              : Audio Coding 3
Mode extension                           : CM (complete main)
Format settings, Endianness              : Big
Codec ID                                 : A_AC3
Duration                                 : 1h 40mn
Bit rate mode                            : Constant
Bit rate                                 : 384 Kbps
Channel(s)                               : 6 channels
Channel positions                        : Front: L C R, Side: L R, LFE
Sampling rate                            : 48.0 KHz
Frame rate                               : 31.250 fps (1536 spf)
Compression mode                         : Lossy
Stream size                              : 275 MiB (15%)
Title                                    : Türkçe - Filmbol.org
Language                                 : Turkish
Default                                  : Yes
Forced                                   : No

Text
ID                                       : 3
Format                                   : UTF-8
Codec ID                                 : S_TEXT/UTF8
Codec ID/Info                            : UTF-8 Plain Text
Duration                                 : 1h 14mn
Bit rate                                 : 0 bps
Count of elements                        : 4
Stream size                              : 77.0 Bytes (0%)
Title                                    : KISIM
Language                                 : Turkish
Default                                  : Yes
Forced                                   : Yes

Film Detayları


Oyuncak Hikayesi 4

Oyuncak Hikayesi 4

Oyuncak Hikayesi 4


Film Fragmanı


Film Detayları

Mini 1080P İndir


Uptobox ile indir

b1j8
Mega linki şuan da gizli. Kullanıma açmak için konuya yorum yapın ve ardından sayfayı yenileyin.

Mega


MediaFire ile indir

Google Drive linki şuan da gizli. Kullanıma açmak için konuya yorum yapın ve ardından sayfayı yenileyin.

Google Drive

Şuan Offine!
Şuan Offine!
Hellenger28 Uzman Üye
**
Uzman Üye

  • Konular0
  • Mesajlar15
  • Rep puanı 0
Güzel film tavsiye ederimm Smile
Şuan Offine!
Şuan Offine!
Aspirin46 Süper Üye
***
Super Üye

  • Konular0
  • Mesajlar57
  • Rep puanı 0
süper
Şuan Offine!
Şuan Offine!
Alperen34 Yeni Üye
*
Üye

  • Konular0
  • Mesajlar3
  • Rep puanı 0
We gooood
Şuan Offine!
Şuan Offine!
Murat94 Süper Üye
***
Super Üye

  • Konular0
  • Mesajlar36
  • Rep puanı 0
Harika
Şuan Offine!
Şuan Offine!
Blabla06 Yeni Üye
*
Üye

  • Konular0
  • Mesajlar1
  • Rep puanı 0
Harika
Şuan Offine!
Şuan Offine!
miko149 Yeni Üye
*
Üye

  • Konular0
  • Mesajlar3
  • Rep puanı 0
arkadaşlar telifsiz filmleri bulup youtube kanalıma yüklemek istiyorum bu konuda bilgisi olan var mı
Şuan Offine!
Şuan Offine!
ismahil Yeni Üye
*
Üye

  • Konular0
  • Mesajlar4
  • Rep puanı 0
beklediğim bir filmdi
Şuan Offine!
Şuan Offine!
kekoab1 Yeni Üye
*
Üye

  • Konular0
  • Mesajlar1
  • Rep puanı 0
hll olsun
Şuan Offine!
Şuan Offine!
ozcanveli Yeni Üye
*
Üye

  • Konular0
  • Mesajlar2
  • Rep puanı 0
yine yorum. gereksiz


Konu ile Alakalı Benzer Konular
Konular Yazar Yorumlar Okunma Son Yorum
Filmin Yayınlanma Tarihi: 2016
Jack Reacher: Asla Geri Dönme (J.R: Never Go Back) Türkçe Dublaj m1080P İndir BroserBros 7 2,311 , Saat: 17:24
Son Yorum: muradims
Filmin Yayınlanma Tarihi: 2019
Godzilla 2: Canavarlar Kralı (King of the Monsters) Türkçe Dublaj BLURAY m1080P İndir BroserBros 32 2,447 11-04-2021, Saat: 19:05
Son Yorum: FCBTZR
Filmin Yayınlanma Tarihi: 2016
Kung Fu Panda 3 Türkçe Dublaj m1080P İndir BroserBros 16 7,472 11-04-2021, Saat: 09:32
Son Yorum: metlebision
Filmin Yayınlanma Tarihi: 2014
Godzilla (Godzilla) Türkçe Dublaj 1080P İndir BroserBros 5 2,069 11-04-2021, Saat: 01:35
Son Yorum: FCBTZR
Filmin Yayınlanma Tarihi: 2005
Harry Potter ve Ateş Kadehi (Goblet of Fire) Türkçe Dublaj BLURAY 1080P İndir BroserBros 31 3,137 09-04-2021, Saat: 23:56
Son Yorum: axpell

Hızlı Menü: